<?xml version="1.0" standalone="no"?>
<!DOCTYPE svg PUBLIC "-//W3C//DTD SVG 1.1//EN" "http://www.w3.org/Graphics/SVG/1.1/DTD/svg11.dtd" >
<svg xmlns="http://www.w3.org/2000/svg">
<metadata></metadata>
<defs>
<font id="cposboldbold" horiz-adv-x="1146" >
<font-face units-per-em="2048" ascent="1536" descent="-512" />
<missing-glyph horiz-adv-x="532" />
<glyph horiz-adv-x="0" />
<glyph horiz-adv-x="0" />
<glyph horiz-adv-x="682" />
<glyph unicode="&#xd;" horiz-adv-x="0" />
<glyph unicode=" "  horiz-adv-x="532" />
<glyph unicode="&#x09;" horiz-adv-x="532" />
<glyph unicode="&#xa0;" horiz-adv-x="532" />
<glyph unicode="!" horiz-adv-x="819" d="M246 20v267l20 20h287l20 -20v-267l-20 -20h-287zM266 963v450l21 21h245l21 -21v-450l-41 -471l-20 -21h-164l-21 21z" />
<glyph unicode="&#x22;" horiz-adv-x="1105" d="M164 819v594l20 21h246l21 -21v-594l-21 -20h-246zM655 819v594l21 21h246l20 -21v-594l-20 -20h-246z" />
<glyph unicode="#" horiz-adv-x="1331" d="M61 430v164l21 20h184l21 21l41 164l-21 20h-123l-20 21v164l20 20h185l20 20l103 369l20 21h143l21 -21v-205l-41 -164l20 -20h185l20 20l103 369l20 21h143l21 -21v-205l-41 -164l20 -20h123l21 -20v-164l-21 -21h-184l-21 -20l-40 -164l20 -21h123l20 -20v-164 l-20 -20h-184l-21 -21l-102 -369l-21 -20h-143l-21 20v205l41 164l-20 21h-184l-21 -21l-102 -369l-21 -20h-143l-21 20v205l41 164l-20 21h-123zM532 635l21 -21h184l21 21l41 164l-21 20h-184l-21 -20z" />
<glyph unicode="$" horiz-adv-x="1351" d="M82 451l20 20h246l21 -20q0 -93 46.5 -151t137.5 -75l20 21v368l-20 21q-85 19 -150.5 42t-123.5 58.5t-96 80.5t-59.5 108t-21.5 141q0 71 25.5 132t69 104.5t102 76t122 51t132.5 25.5l20 21v122l21 21h164l20 -21v-122l21 -21q191 -32 300 -141.5t109 -288.5l-20 -20 h-246l-20 20q0 75 -29 110.5t-94 53.5l-21 -21v-286l21 -21q58 -13 107 -28t106 -40t100.5 -59.5t80.5 -79t57 -107t20 -136.5q0 -78 -28 -147.5t-84 -128.5t-148 -99.5t-211 -54.5l-21 -21v-123l-20 -20h-164l-21 20v123l-20 21q-227 30 -349 156t-122 315zM389 1065 q0 -37 13.5 -65.5t38.5 -47t51 -30t61 -21.5l20 21v266l-20 20q-33 0 -69 -13.5t-65.5 -48t-29.5 -81.5zM778 246l21 -21q84 18 134 64.5t50 120.5q0 85 -47 124.5t-137 59.5l-21 -21v-327z" />
<glyph unicode="%" horiz-adv-x="1925" d="M82 1065q0 176 94.5 282.5t274.5 106.5q178 0 273 -107t95 -282t-95 -282t-273 -107q-180 0 -274.5 106.5t-94.5 282.5zM348 1065q0 -88 26.5 -126t76.5 -38t76 38t26 126t-26 126t-76 38t-76.5 -38t-26.5 -126zM492 20v205l778 1188l20 21h123l21 -21v-205l-779 -1188 l-20 -20h-123zM1106 369q0 176 94.5 282.5t274.5 106.5q178 0 273 -107t95 -282t-95 -282t-273 -107q-180 0 -274.5 106.5t-94.5 282.5zM1372 369q0 -88 26.5 -126t76.5 -38t76 38t26 126t-26 125.5t-76 37.5t-76.5 -37.5t-26.5 -125.5z" />
<glyph unicode="&#x26;" horiz-adv-x="1556" d="M164 410q0 70 16 130.5t41 102t62 77t71 57.5t76 42v21q-57 57 -90 119.5t-33 146.5q0 149 103.5 248.5t306.5 99.5q95 0 169 -30.5t115.5 -80.5t62.5 -105t21 -112q0 -117 -52.5 -199.5t-151.5 -148.5v-20l225 -226h20q20 39 29 81.5t10.5 76.5t1.5 109l21 20h225 l21 -20q0 -87 -2 -133.5t-11 -113.5t-31 -120.5t-59 -103.5v-21l82 -82v-205l-20 -20h-103l-41 20l-102 103h-21q-181 -143 -450 -143q-127 0 -227 35.5t-161 96t-92.5 136.5t-31.5 162zM451 410q0 -81 59 -133t166 -52q184 0 266 82v21l-307 307h-21q-92 -47 -127.5 -96.5 t-35.5 -128.5zM573 1106q0 -30 15 -59t31 -46.5t57 -58.5h20q30 20 47 32.5t37 33t29.5 45t9.5 53.5q0 102 -123 102q-60 0 -91.5 -27t-31.5 -75z" />
<glyph unicode="'" horiz-adv-x="614" d="M164 819v594l20 21h246l21 -21v-594l-21 -20h-246z" />
<glyph unicode="(" horiz-adv-x="921" d="M164 512q0 122 1 183.5t23.5 142t39.5 116t87 122t126 143t194 194.5l41 21h61l21 -21v-205l-97 -97t-71.5 -77.5t-56 -69.5t-35.5 -65.5t-26.5 -71.5t-12 -82t-8 -103.5t-0.5 -129.5t0.5 -129.5t8 -103.5t12 -82t26.5 -71.5t35.5 -65.5t56 -69.5t71.5 -77.5l97 -97v-205 l-21 -21h-61l-41 21q-138 138 -194 194.5t-126 143t-87 122t-39.5 116t-23.5 142t-1 183.5z" />
<glyph unicode=")" horiz-adv-x="921" d="M164 -184l97 97t71.5 77.5t56 69.5t35.5 65.5t26.5 71.5t12 82t8 103.5t0.5 129.5t-0.5 129.5t-8 103.5t-12 82t-26.5 71.5t-35.5 65.5t-56 69.5t-71.5 77.5l-97 97v205l20 21h62l41 -21q138 -138 194 -194.5t126 -143t87 -122t39.5 -116t23.5 -142t1 -183.5t-1 -183.5 t-23.5 -142t-39.5 -116t-87 -122t-126 -143t-194 -194.5l-41 -21h-62l-20 21v205z" />
<glyph unicode="*" horiz-adv-x="1208" d="M164 983v21l20 20h328v20l-225 226v20l20 21h21l225 -226h20v328l21 21h20l21 -21v-328h20l226 226h20l21 -21v-20l-226 -226v-20h328l20 -20v-21l-20 -20h-328v-21l226 -225v-21l-21 -20h-20l-226 225h-20v-328l-21 -20h-20l-21 20v328h-20l-225 -225h-21l-20 20v21 l225 225v21h-328z" />
<glyph unicode="+" horiz-adv-x="1269" d="M123 410v204l20 21h349l20 20v349l20 20h205l21 -20v-349l20 -20h348l21 -21v-204l-21 -21h-348l-20 -20v-349l-21 -20h-205l-20 20v349l-20 20h-349z" />
<glyph unicode="," horiz-adv-x="655" d="M143 -246l123 205v21l-20 20h-62l-20 20v267l20 20h287l21 -20v-287l-21 -61l-164 -205l-41 -21h-123v41z" />
<glyph unicode="-" horiz-adv-x="880" d="M123 430v205l20 20h594l21 -20v-205l-21 -20h-594z" />
<glyph unicode="." horiz-adv-x="655" d="M164 20v267l20 20h287l21 -20v-267l-21 -20h-287z" />
<glyph unicode="/" horiz-adv-x="1044" d="M82 20v205l696 1188l21 21h143l21 -21v-205l-697 -1188l-20 -20h-144z" />
<glyph unicode="0" horiz-adv-x="1228" d="M82 717q0 194 39.5 338.5t112 230.5t167.5 127t213 41t213 -41t168 -127t112.5 -230.5t39.5 -338.5t-39.5 -338.5t-112.5 -230.5t-168 -127t-213 -41t-213 41t-167.5 127t-112 230.5t-39.5 338.5zM369 717q0 -182 27.5 -291.5t80 -155t137.5 -45.5t137.5 45.5t80.5 155 t28 291.5t-28 291t-80.5 154.5t-137.5 45.5t-137.5 -45.5t-80 -154.5t-27.5 -291z" />
<glyph unicode="1" horiz-adv-x="839" d="M82 922v204l287 287l41 21h245l21 -21v-1393l-21 -20h-245l-21 20v1045h-20l-164 -164h-103z" />
<glyph unicode="2" horiz-adv-x="1167" d="M82 20v226l20 41l369 307q121 100 184 170.5t83 122t20 117.5q0 95 -47.5 149.5t-137.5 54.5q-116 0 -160 -51.5t-44 -152.5l-21 -21h-246l-20 21q0 70 15.5 133t51.5 121.5t91 101.5t140.5 68.5t192.5 25.5q111 0 202 -35.5t148.5 -96t89 -137t31.5 -161.5 q0 -83 -19 -151t-64 -134t-106 -126.5t-159 -141.5l-245 -205v-20h614l20 -21v-205l-20 -20h-963z" />
<glyph unicode="3" horiz-adv-x="1167" d="M61 389l21 21h246l20 -21q0 -67 53 -115.5t152 -48.5q120 0 183 66.5t63 179.5q0 120 -55 183t-150 63q-44 0 -92 -21q-19 -8 -31 -20h-102l-21 20v185l287 286v21h-492l-20 20v205l20 21h840l21 -21v-205l-21 -41l-266 -245v-21q69 0 135 -30t118 -84t83.5 -136.5 t31.5 -179.5q0 -102 -34.5 -190t-99.5 -155.5t-167.5 -106.5t-230.5 -39q-119 0 -214.5 35t-155 93t-91 130.5t-31.5 150.5z" />
<glyph unicode="4" horiz-adv-x="1167" d="M41 430v225l20 41l615 717l41 21h266l21 -21v-1393l-21 -20h-246l-20 20v369l-21 21h-635zM348 655h348l21 21v409h-21l-348 -409v-21z" />
<glyph unicode="5" horiz-adv-x="1228" d="M123 389l20 21h246l21 -21q17 -91 63.5 -127.5t140.5 -36.5q116 0 171 59.5t55 207.5q0 114 -50 179.5t-155 65.5q-71 0 -126.5 -25.5t-98.5 -97.5l-41 -20l-205 20l-21 21l41 778l21 21h839l21 -21v-205l-21 -20h-573l-20 -21l-21 -286h21q23 33 53 51q80 51 192 51 q197 0 313.5 -132.5t116.5 -338.5q0 -252 -129 -392t-383 -140q-226 0 -351.5 109.5t-139.5 299.5z" />
<glyph unicode="6" horiz-adv-x="1208" d="M102 717q0 171 32 305.5t96 231.5t166.5 148.5t238.5 51.5q211 0 332 -94.5t139 -253.5l-21 -21h-245l-21 21q-19 52 -58.5 77t-125.5 25q-58 0 -101.5 -25t-66.5 -60t-36.5 -83.5t-17 -84.5t-3.5 -74h20q21 24 53 41q70 41 193 41q189 0 319.5 -131t130.5 -340 q0 -228 -137.5 -370t-353.5 -142q-284 0 -408.5 180t-124.5 557zM410 471q0 -246 225 -246q92 0 148.5 68t56.5 178q0 114 -50.5 180t-154.5 66q-225 0 -225 -246z" />
<glyph unicode="7" horiz-adv-x="1085" d="M82 1208v205l20 21h902l20 -21v-225l-573 -1168l-21 -20h-164l-20 20v205l471 942v21h-615z" />
<glyph unicode="8" horiz-adv-x="1187" d="M82 430q0 127 54 207.5t130 120.5v20q-58 37 -100.5 107t-42.5 180q0 162 126 275.5t345 113.5t345 -113.5t126 -275.5q0 -110 -42.5 -180t-100.5 -107v-20q76 -40 130 -120.5t54 -207.5q0 -86 -31.5 -165t-92.5 -143.5t-161.5 -103t-226.5 -38.5t-226.5 38.5t-161.5 103 t-92.5 143.5t-31.5 165zM369 430q0 -87 55 -146t170 -59t170 59t55 146q0 94 -58.5 149.5t-166.5 55.5t-166.5 -55.5t-58.5 -149.5zM410 1044q0 -82 47.5 -133t136.5 -51t136.5 51t47.5 133q0 25 -9 51t-28.5 52.5t-57.5 43.5t-89 17t-89 -17t-57.5 -43.5t-28.5 -52.5 t-9 -51z" />
<glyph unicode="9" horiz-adv-x="1208" d="M82 963q0 227 140.5 359t371.5 132q257 0 384.5 -182t127.5 -514q0 -395 -124.5 -586.5t-408.5 -191.5q-208 0 -322 94t-128 254l20 20h246l21 -20q19 -52 54.5 -77.5t108.5 -25.5q58 0 101.5 25t66.5 60.5t37 84t17.5 84.5t3.5 74h-21q-32 -28 -61 -41q-73 -41 -185 -41 q-187 0 -318.5 140t-131.5 352zM369 963q0 -120 54.5 -183t149.5 -63q226 0 226 246q0 130 -62.5 187.5t-163.5 57.5q-95 0 -149.5 -62.5t-54.5 -182.5z" />
<glyph unicode=":" horiz-adv-x="655" d="M164 20v267l20 20h287l21 -20v-267l-21 -20h-287zM164 737v267l20 20h287l21 -20v-267l-21 -20h-287z" />
<glyph unicode=";" horiz-adv-x="655" d="M143 -246l123 205v21l-20 20h-62l-20 20v267l20 20h287l21 -20v-287l-21 -61l-164 -205l-41 -21h-123v41zM164 737v267l20 20h287l21 -20v-267l-21 -20h-287z" />
<glyph unicode="&#x3c;" horiz-adv-x="1187" d="M143 430v164l21 41l737 389h103l20 -20v-185l-20 -41l-512 -246v-40l512 -246l20 -41v-185l-20 -20h-103l-737 389z" />
<glyph unicode="=" horiz-adv-x="1228" d="M164 184v205l20 21h860l21 -21v-205l-21 -20h-860zM164 635v205l20 20h860l21 -20v-205l-21 -21h-860z" />
<glyph unicode="&#x3e;" horiz-adv-x="1187" d="M164 20v185l20 41l512 246v40l-512 246l-20 41v185l20 20h103l737 -389l20 -41v-164l-20 -41l-737 -389h-103z" />
<glyph unicode="?" horiz-adv-x="1310" d="M164 983q0 103 28 187t85.5 148.5t153.5 100t224 35.5q127 0 223.5 -32.5t154 -89.5t86 -129.5t28.5 -158.5q0 -66 -17.5 -122.5t-50.5 -101t-70 -77.5t-87 -67q-89 -58 -116.5 -99.5t-27.5 -105.5l-20 -20h-246l-20 20q0 108 45 186.5t139 141.5q100 66 142 118.5 t42 126.5q0 67 -53 115.5t-152 48.5q-111 0 -157.5 -51t-46.5 -174l-21 -20h-246zM471 20v267l21 20h286l21 -20v-267l-21 -20h-286z" />
<glyph unicode="@" horiz-adv-x="1925" d="M123 512q0 189 62.5 350t173 272.5t266.5 174.5t338 63q385 0 612 -231t227 -629q0 -492 -368 -492q-86 0 -149 35t-97 88h-21q-30 -34 -61 -51q-77 -51 -184 -51q-78 0 -147.5 31.5t-124 89.5t-86.5 148.5t-32 201.5q0 118 31.5 211t84.5 148.5t117.5 83.5t135.5 28 q89 0 156 -51q24 -18 49 -51h20l21 61l20 21h185l20 -21v-614q0 -103 82 -103q61 0 81.5 59t20.5 228q0 141 -35.5 255.5t-106.5 200t-186 132.5t-265 47q-141 0 -256 -53t-187.5 -142t-111.5 -202t-39 -238q0 -132 38.5 -247t112 -201.5t187.5 -136.5t256 -50q191 0 348 62 h41l20 -21v-164q-168 -102 -409 -102q-251 0 -443.5 112.5t-294.5 307.5t-102 440zM799 512q0 -74 13.5 -124.5t38 -76t51.5 -35.5t61 -10t60.5 10t51 35.5t38 76t13.5 124.5t-13.5 124.5t-38 76t-51 35.5t-60.5 10t-61 -10t-51.5 -35.5t-38 -76t-13.5 -124.5z" />
<glyph unicode="A" horiz-adv-x="1331" d="M41 20v205l471 1188l20 21h267l20 -21l471 -1188v-205l-20 -20h-185l-20 20l-102 267l-41 20h-512l-41 -20l-103 -267l-20 -20h-185zM471 573l21 -20h348l20 20l-184 492h-21z" />
<glyph unicode="B" horiz-adv-x="1372" d="M164 20v1393l20 21h656q63 0 121 -12.5t111 -41t92 -70.5t62 -105t23 -140q0 -115 -50.5 -196.5t-154.5 -110.5v-21q246 -61 246 -348q0 -103 -34.5 -181t-94 -122t-129.5 -65t-151 -21h-697zM451 266l20 -20h328q108 0 156.5 45t48.5 139t-48.5 139t-156.5 45h-328 l-20 -20v-328zM451 881l20 -21h328q85 0 124.5 47t39.5 117q0 82 -37.5 123t-126.5 41h-328l-20 -21v-286z" />
<glyph unicode="C" horiz-adv-x="1454" d="M82 717q0 218 79 383t237.5 259.5t379.5 94.5q247 0 404.5 -113.5t189.5 -316.5l-20 -20h-246l-21 20q-61 184 -307 184q-105 0 -184.5 -36t-128 -102t-72.5 -154.5t-24 -198.5t24 -198.5t72.5 -155t128 -102.5t184.5 -36q126 0 201.5 48.5t105.5 156.5l21 21h246l20 -21 q-31 -214 -188.5 -332t-405.5 -118q-221 0 -379.5 94.5t-237.5 259.5t-79 383z" />
<glyph unicode="D" horiz-adv-x="1413" d="M164 20v1393l20 21h451q189 0 324.5 -48t216 -143t118 -224t37.5 -302q0 -174 -37 -303.5t-118.5 -224t-216.5 -142t-324 -47.5h-451zM451 266l20 -20h184q212 0 300.5 110.5t88.5 360.5t-88.5 360.5t-300.5 110.5h-184l-20 -21v-901z" />
<glyph unicode="E" horiz-adv-x="1290" d="M164 20v1393l20 21h963l20 -21v-205l-20 -20h-676l-20 -21v-286l20 -21h635l20 -20v-205l-20 -21h-635l-20 -20v-328l20 -20h676l20 -21v-205l-20 -20h-963z" />
<glyph unicode="F" horiz-adv-x="1208" d="M164 20v1393l20 21h922l20 -21v-205l-20 -20h-635l-20 -21v-307l20 -20h594l20 -21v-205l-20 -20h-594l-20 -21v-553l-21 -20h-246z" />
<glyph unicode="G" horiz-adv-x="1515" d="M82 717q0 216 83 382.5t242 260.5t371 94q119 0 217.5 -25.5t165 -67t116 -99t76 -115.5t40.5 -123l-21 -20h-246l-20 20q-17 32 -29 51.5t-39.5 48t-59 44.5t-83.5 28t-117 12q-195 0 -302 -135t-107 -356t107 -356.5t302 -135.5q161 0 244.5 79t83.5 208l-21 20h-348 l-20 21v205l20 20h635l21 -20v-738l-21 -20h-184l-21 20l-20 103h-21q-19 -19 -33 -31.5t-49 -36t-71.5 -38t-93.5 -26t-121 -11.5q-202 0 -356 94t-237 261t-83 382z" />
<glyph unicode="H" horiz-adv-x="1495" d="M164 20v1393l20 21h246l21 -21v-532l20 -21h553l20 21v532l21 21h246l20 -21v-1393l-20 -20h-246l-21 20v574l-20 20h-553l-20 -20v-574l-21 -20h-246z" />
<glyph unicode="I" horiz-adv-x="614" d="M164 20v1393l20 21h246l21 -21v-1393l-21 -20h-246z" />
<glyph unicode="J" horiz-adv-x="1126" d="M41 410v20l20 21h246l21 -21v-20q0 -185 164 -185q87 0 135.5 45t48.5 160v983l20 21h246l21 -21v-962q0 -239 -124 -355t-347 -116q-95 0 -172.5 25t-128.5 66.5t-85.5 98t-49.5 116.5t-15 124z" />
<glyph unicode="K" horiz-adv-x="1310" d="M164 20v1393l20 21h246l21 -21v-594h20l594 594l41 21h102l21 -21v-205l-410 -409v-21l451 -553v-205l-21 -20h-143l-41 20l-451 553h-20l-143 -143v-410l-21 -20h-246z" />
<glyph unicode="L" d="M164 20v1393l20 21h246l21 -21v-1147l20 -20h635l20 -21v-205l-20 -20h-922z" />
<glyph unicode="M" horiz-adv-x="1863" d="M164 20v1393l20 21h308l20 -21l410 -1003h20l410 1003l20 21h307l21 -21v-1393l-21 -20h-245l-21 20v799h-20l-328 -799l-21 -20h-225l-20 20l-328 799h-20v-799l-21 -20h-246z" />
<glyph unicode="N" horiz-adv-x="1536" d="M164 20v1393l20 21h287l41 -21l553 -942h20v942l21 21h246l20 -21v-1393l-20 -20h-287l-41 20l-553 943h-20v-943l-21 -20h-246z" />
<glyph unicode="O" horiz-adv-x="1556" d="M82 717q0 216 83 382.5t242 260.5t371 94t371 -94t242.5 -260.5t83.5 -382.5t-83.5 -382.5t-242.5 -260.5t-371 -94t-371 94t-242 260.5t-83 382.5zM369 717q0 -221 107 -356.5t302 -135.5t302.5 135.5t107.5 356.5t-107.5 356t-302.5 135t-302 -135t-107 -356z" />
<glyph unicode="P" horiz-adv-x="1392" d="M164 20v1393l20 21h676q223 0 357.5 -110.5t134.5 -319.5t-134.5 -320t-357.5 -111h-389l-20 -20v-533l-21 -20h-246zM451 840l20 -21h389q99 0 152 41.5t53 143.5q0 100 -53 142t-152 42h-389l-20 -21v-327z" />
<glyph unicode="Q" horiz-adv-x="1556" d="M82 717q0 218 79 383t237.5 259.5t379.5 94.5q166 0 298.5 -54.5t219.5 -152t133 -233t46 -297.5q0 -225 -82 -389v-41l61 -62v-205l-20 -20h-144l-82 82h-20q-168 -102 -410 -102q-221 0 -379.5 94.5t-237.5 259.5t-79 383zM369 717q0 -110 24 -198.5t72.5 -155 t128 -102.5t184.5 -36q132 0 205 41v41l-164 164h-205l-20 21v184l20 20h349l41 -20l143 -144h20q21 64 21 156v29q0 110 -24 198.5t-73 154.5t-128.5 102t-184.5 36t-184.5 -36t-128 -102t-72.5 -154.5t-24 -198.5z" />
<glyph unicode="R" horiz-adv-x="1433" d="M164 20v1393l20 21h676q223 0 357.5 -110.5t134.5 -319.5q0 -159 -89 -269t-219 -141v-21l267 -348v-205l-21 -20h-123l-41 20l-409 533l-41 20h-205l-20 -20v-533l-21 -20h-246zM451 840l20 -21h389q99 0 152 41.5t53 143.5q0 100 -53 142t-152 42h-389l-20 -21v-327z " />
<glyph unicode="S" horiz-adv-x="1351" d="M82 451l20 20h246l21 -20q0 -114 74.5 -170t252.5 -56q287 0 287 185q0 107 -73.5 149.5t-295.5 75.5q-115 15 -203 44.5t-160 78.5t-110.5 126.5t-38.5 180.5q0 63 20 119.5t63.5 106t107 85.5t156.5 57t206 21q278 0 415.5 -117.5t137.5 -312.5l-20 -20h-246l-20 20 q0 96 -63 140t-224 44q-246 0 -246 -143q0 -91 76.5 -133.5t292.5 -71.5q114 -18 202 -49.5t160.5 -83.5t111 -132t38.5 -185q0 -87 -33.5 -162t-101.5 -136t-185.5 -96.5t-273.5 -35.5q-150 0 -265 35.5t-186 99.5t-107 149t-36 187z" />
<glyph unicode="T" horiz-adv-x="1269" d="M41 1208v205l20 21h1147l21 -21v-205l-21 -20h-409l-21 -21v-1147l-20 -20h-246l-20 20v1147l-21 21h-410z" />
<glyph unicode="U" horiz-adv-x="1474" d="M164 553v860l20 21h246l21 -21v-860q0 -328 286 -328q287 0 287 328v860l20 21h246l21 -21v-860q0 -281 -146.5 -427t-427.5 -146t-427 146t-146 427z" />
<glyph unicode="V" horiz-adv-x="1331" d="M61 1208v205l21 21h184l21 -21l368 -1003h21l368 1003l21 21h184l21 -21v-205l-451 -1188l-20 -20h-267l-20 20z" />
<glyph unicode="W" horiz-adv-x="1945" d="M82 1208v205l20 21h205l21 -21l204 -942h21l266 942l21 21h266l20 -21l267 -942h20l205 942l20 21h205l21 -21v-205l-308 -1188l-20 -20h-266l-21 20l-266 984h-20l-267 -984l-20 -20h-266l-21 20z" />
<glyph unicode="X" horiz-adv-x="1372" d="M82 20v205l410 512v21l-390 450v205l21 21h143l41 -21l369 -450h20l369 450l41 21h143l21 -21v-205l-389 -450v-21l409 -512v-205l-20 -20h-144l-41 20l-389 512h-20l-389 -512l-41 -20h-144z" />
<glyph unicode="Y" horiz-adv-x="1228" d="M61 1208v205l21 21h143l41 -21l328 -553h41l328 553l41 21h143l20 -21v-205l-409 -676v-512l-21 -20h-245l-21 20v512z" />
<glyph unicode="Z" horiz-adv-x="1269" d="M102 20v226l21 41l655 880v21h-635l-20 20v205l20 21h963l20 -21v-225l-20 -41l-655 -881v-20h696l20 -21v-205l-20 -20h-1024z" />
<glyph unicode="[" horiz-adv-x="839" d="M164 -389v1802l20 21h471l21 -21v-205l-21 -20h-184l-20 -21v-1310l20 -21h184l21 -20v-205l-21 -21h-471z" />
<glyph unicode="\" horiz-adv-x="1044" d="M82 1208v205l20 21h144l20 -21l697 -1188v-205l-21 -20h-143l-21 20z" />
<glyph unicode="]" horiz-adv-x="839" d="M164 -184l20 20h185l20 21v1310l-20 21h-185l-20 20v205l20 21h471l21 -21v-1802l-21 -21h-471l-20 21v205z" />
<glyph unicode="^" horiz-adv-x="1187" d="M143 492v204l328 717l21 21h204l21 -21l327 -717v-204l-20 -21h-143l-41 21l-226 552h-41l-225 -552l-41 -21h-143z" />
<glyph unicode="_" horiz-adv-x="1187" d="M82 -20l20 20h983l21 -20v-205l-21 -21h-983l-20 21v205z" />
<glyph unicode="`" horiz-adv-x="1024" d="M164 1372v41l20 21h205l41 -21l205 -205v-41l-21 -20h-184l-41 20z" />
<glyph unicode="a" horiz-adv-x="1064" d="M61 307q0 73 21.5 131.5t59.5 95t82.5 62t98.5 37.5t98 17t91 5q50 0 102 -10l41 -10l21 20v21q0 77 -26.5 100t-117.5 23h-12q-26 0 -42 -1.5t-35.5 -7t-32.5 -19t-21 -34.5l-20 -20h-246l-21 20q0 50 22 100.5t69 98.5t135 78t204 30q237 0 334 -115.5t97 -355.5v-553 l-21 -20h-225l-21 20l-20 41h-21q-40 -31 -59 -41q-68 -40 -166 -40q-172 0 -270.5 87t-98.5 240zM348 328q0 -103 144 -103q78 0 131 41.5t53 102.5v41l-21 20l-30 10q-42 11 -93 11q-184 0 -184 -123z" />
<glyph unicode="b" horiz-adv-x="1208" d="M123 20v1393l20 21h246l21 -21v-471h20q34 34 64 51q88 51 202 51q190 0 320.5 -146.5t130.5 -385.5q0 -120 -36 -221t-97.5 -168.5t-143.5 -105t-174 -37.5q-121 0 -202 51q-30 17 -64 51h-20l-21 -62l-20 -20h-226zM410 512q0 -132 54 -209.5t171 -77.5t171 77.5 t54 209.5t-54 209.5t-171 77.5t-171 -77.5t-54 -209.5z" />
<glyph unicode="c" horiz-adv-x="1105" d="M61 512q0 244 140.5 388t371.5 144q182 0 311 -86.5t160 -261.5l-20 -20h-246l-20 20q-38 103 -185 103q-110 0 -167.5 -73t-57.5 -214t57.5 -214t167.5 -73q147 0 185 103l20 20h246l20 -20q-31 -175 -160 -261.5t-311 -86.5q-231 0 -371.5 144t-140.5 388z" />
<glyph unicode="d" horiz-adv-x="1208" d="M61 512q0 239 130.5 385.5t320.5 146.5q115 0 203 -51q27 -15 63 -51h21v471l20 21h246l20 -21v-1393l-20 -20h-225l-21 20l-20 62h-21q-36 -36 -63 -51q-81 -51 -203 -51q-92 0 -174 37.5t-143.5 105t-97.5 168.5t-36 221zM348 512q0 -132 54 -209.5t171 -77.5 t171.5 77.5t54.5 209.5t-54.5 209.5t-171.5 77.5t-171 -77.5t-54 -209.5z" />
<glyph unicode="e" horiz-adv-x="1105" d="M61 512q0 109 31.5 204.5t91 169t155 116t214.5 42.5q96 0 176.5 -28t138 -77t97.5 -116t59.5 -145.5t19.5 -165.5v-82l-20 -20h-635l-20 -21q0 -19 9.5 -43.5t30.5 -53t64 -48t100 -19.5q49 0 88 16t56 46l20 20h246l21 -20q-7 -40 -23 -79.5t-49.5 -81.5t-79.5 -73.5 t-118.5 -52t-160.5 -20.5q-127 0 -227 42.5t-161 116.5t-92.5 168.5t-31.5 204.5zM369 635l20 -21h328l20 21q0 14 -6.5 36t-23.5 53.5t-57 53t-97 21.5t-97 -21.5t-57 -53t-23.5 -53.5t-6.5 -36z" />
<glyph unicode="f" horiz-adv-x="839" d="M61 799v205l21 20h143l21 20v82q0 81 28 142t77.5 96.5t110 52.5t132.5 17h184l21 -21v-205l-21 -20h-184q-62 0 -62 -62v-82l21 -20h205l20 -20v-205l-20 -21h-205l-21 -20v-738l-20 -20h-246l-20 20v738l-21 20h-143z" />
<glyph unicode="g" horiz-adv-x="1208" d="M61 512q0 239 130.5 385.5t320.5 146.5q115 0 203 -51q27 -15 63 -51h21l20 62l21 20h225l20 -20v-902q0 -135 -39.5 -238.5t-109.5 -166.5t-161.5 -95t-201.5 -32q-185 0 -299 82.5t-131 224.5l21 21h246l20 -21q18 -32 50.5 -46.5t92.5 -14.5q113 0 169.5 64t56.5 202 h-21q-36 -36 -63 -51q-81 -51 -203 -51q-92 0 -174 37.5t-143.5 105t-97.5 168.5t-36 221zM348 512q0 -132 54 -209.5t171 -77.5t171.5 77.5t54.5 209.5t-54.5 209.5t-171.5 77.5t-171 -77.5t-54 -209.5z" />
<glyph unicode="h" horiz-adv-x="1208" d="M123 20v1393l20 21h246l21 -21v-471h20q102 102 266 102q182 0 285.5 -111t103.5 -298v-615l-20 -20h-246l-20 20v594q0 185 -164 185q-112 0 -168.5 -64.5t-56.5 -202.5v-512l-21 -20h-246z" />
<glyph unicode="i" horiz-adv-x="532" d="M123 20v984l20 20h246l21 -20v-984l-21 -20h-246zM123 1208v205l20 21h246l21 -21v-205l-21 -20h-246z" />
<glyph unicode="j" horiz-adv-x="532" d="M-82 -143l21 20h102q47 0 64.5 17.5t17.5 64.5v1045l20 20h246l21 -20v-1045q0 -178 -86.5 -253t-262.5 -75h-122l-21 21v205zM123 1208v205l20 21h246l21 -21v-205l-21 -20h-246z" />
<glyph unicode="k" horiz-adv-x="1105" d="M123 20v1393l20 21h246l21 -21v-819h20l410 410l41 20h123l20 -20v-205l-246 -246v-21l266 -307v-205l-20 -20h-123l-41 20l-287 308h-20l-123 -123l-20 -41v-144l-21 -20h-246z" />
<glyph unicode="l" horiz-adv-x="532" d="M123 20v1393l20 21h246l21 -21v-1393l-21 -20h-246z" />
<glyph unicode="m" horiz-adv-x="1781" d="M123 20v984l20 20h226l20 -20l21 -62h20q23 33 53 51q80 51 193 51q59 0 107.5 -13t82.5 -36.5t55 -44.5t42 -49h20q28 38 70 72q99 71 237 71q188 0 288.5 -104t100.5 -305v-615l-20 -20h-246l-20 20v594q0 185 -164 185q-185 0 -185 -226v-553l-20 -20h-246l-20 20v594 q0 185 -164 185q-184 0 -184 -226v-553l-21 -20h-246z" />
<glyph unicode="n" horiz-adv-x="1187" d="M123 20v984l20 20h226l20 -20l21 -62h20q102 102 266 102q182 0 285.5 -111t103.5 -298v-615l-20 -20h-246l-20 20v594q0 185 -164 185q-112 0 -168.5 -64.5t-56.5 -202.5v-512l-21 -20h-246z" />
<glyph unicode="o" d="M61 512q0 244 140.5 388t371.5 144t371.5 -144t140.5 -388t-140.5 -388t-371.5 -144t-371.5 144t-140.5 388zM348 512q0 -141 57.5 -214t167.5 -73t168 73t58 214t-58 214t-168 73t-167.5 -73t-57.5 -214z" />
<glyph unicode="p" horiz-adv-x="1208" d="M123 -389v1393l20 20h226l20 -20l21 -62h20q34 34 64 51q88 51 202 51q190 0 320.5 -146.5t130.5 -385.5q0 -120 -36 -221t-97.5 -168.5t-143.5 -105t-174 -37.5q-121 0 -202 51q-30 17 -64 51h-20v-471l-21 -21h-246zM410 512q0 -132 54 -209.5t171 -77.5t171 77.5 t54 209.5t-54 209.5t-171 77.5t-171 -77.5t-54 -209.5z" />
<glyph unicode="q" horiz-adv-x="1208" d="M61 512q0 239 130.5 385.5t320.5 146.5q115 0 203 -51q27 -15 63 -51h21l20 62l21 20h225l20 -20v-1393l-20 -21h-246l-20 21v471h-21q-36 -36 -63 -51q-81 -51 -203 -51q-92 0 -174 37.5t-143.5 105t-97.5 168.5t-36 221zM348 512q0 -132 54 -209.5t171 -77.5 t171.5 77.5t54.5 209.5t-54.5 209.5t-171.5 77.5t-171 -77.5t-54 -209.5z" />
<glyph unicode="r" horiz-adv-x="839" d="M123 20v984l20 20h226l20 -20l21 -62h20q17 24 43 41q59 41 182 41h123l21 -20v-205l-21 -21h-143q-122 0 -173.5 -62t-51.5 -204v-492l-21 -20h-246z" />
<glyph unicode="s" horiz-adv-x="1024" d="M61 328l21 20h246l20 -20q0 -58 40 -80.5t124 -22.5q82 0 123 18.5t41 63.5q0 20 -7.5 35t-17.5 23.5t-33 16t-39 10.5t-51.5 8.5t-56.5 9.5q-34 6 -61.5 12.5t-70 19.5t-75 28.5t-68.5 41.5t-59.5 56.5t-39 74t-15.5 94.5q0 64 24.5 117.5t74.5 97t135 68t196 24.5 q192 0 311 -79t119 -228l-20 -20h-246l-21 20q0 32 -33.5 47t-109.5 15q-79 0 -111 -17.5t-32 -64.5q0 -17 6.5 -30.5t21 -22.5t30 -15.5t40 -11t45 -7.5t50.5 -7.5t52 -8.5q32 -6 45 -8.5t48 -11t53 -15.5t49.5 -21t49 -29t40.5 -38t35 -49t20.5 -60.5t8.5 -74.5 q0 -65 -25 -121.5t-76.5 -103.5t-141.5 -74.5t-208 -27.5q-211 0 -331 95.5t-120 252.5z" />
<glyph unicode="t" horiz-adv-x="860" d="M41 799v205l20 20h144l20 20v185l21 20h246l20 -20v-185l20 -20h226l20 -20v-205l-20 -21h-226l-20 -20v-451q0 -61 61 -61h185l20 -21v-205l-20 -20h-185q-72 0 -132.5 17t-110 52.5t-77.5 96t-28 141.5v451l-20 20h-144z" />
<glyph unicode="u" horiz-adv-x="1167" d="M102 389v615l21 20h246l20 -20v-594q0 -185 164 -185q104 0 154.5 66t50.5 180v533l20 20h246l20 -20v-984l-20 -20h-225l-21 20l-20 62h-21q-23 -33 -53 -51q-74 -51 -192 -51q-182 0 -286 111t-104 298z" />
<glyph unicode="v" horiz-adv-x="1085" d="M61 799v205l21 20h184l21 -20l245 -635h21l246 635l20 20h185l20 -20v-205l-348 -779l-21 -20h-225l-20 20z" />
<glyph unicode="w" horiz-adv-x="1617" d="M82 799v205l20 20h185l20 -20l164 -574h21l163 574l21 20h266l21 -20l163 -574h21l164 574l20 20h185l20 -20v-205l-246 -779l-20 -20h-266l-21 20l-164 615h-20l-164 -615l-21 -20h-266l-20 20z" />
<glyph unicode="x" horiz-adv-x="1044" d="M61 20v205l246 287v20l-225 267v205l20 20h123l41 -20l246 -308h20l246 308l41 20h123l21 -20v-205l-226 -267v-20l246 -287v-205l-20 -20h-123l-41 20l-267 328h-20l-266 -328l-41 -20h-123z" />
<glyph unicode="y" horiz-adv-x="1085" d="M61 799v205l21 20h184l21 -20l245 -697h21l246 697l20 20h185l20 -20v-205l-328 -819q-27 -68 -51 -113.5t-60.5 -89.5t-81 -69t-109 -40.5t-148.5 -15.5h-103l-20 20v205l20 21h103q73 0 99 16.5t44 65.5v20z" />
<glyph unicode="z" horiz-adv-x="1064" d="M82 20v226l20 41l471 471v20h-450l-21 21v205l21 20h819l21 -20v-226l-21 -41l-471 -471v-20h492l20 -21v-205l-20 -20h-861z" />
<glyph unicode="{" horiz-adv-x="962" d="M164 430v164l20 20q82 0 123 37.5t41 126.5v348q0 88 27 151t73.5 96t97 47t109.5 14h123l21 -21v-205l-21 -20h-61q-47 0 -64.5 -17.5t-17.5 -64.5v-328q0 -112 -33 -170.5t-110 -75.5v-40q77 -17 110 -75.5t33 -170.5v-328q0 -47 17.5 -64.5t64.5 -17.5h61l21 -20v-205 l-21 -21h-123q-59 0 -109.5 14t-97 47t-73.5 96t-27 151v348q0 89 -41 126.5t-123 37.5z" />
<glyph unicode="|" horiz-adv-x="778" d="M246 -389v1802l20 21h246l20 -21v-1802l-20 -21h-246z" />
<glyph unicode="}" horiz-adv-x="962" d="M164 -184l20 20h62q47 0 64.5 17.5t17.5 64.5v328q0 112 33 170.5t110 75.5v40q-77 17 -110 75.5t-33 170.5v328q0 47 -17.5 64.5t-64.5 17.5h-62l-20 20v205l20 21h123q59 0 109.5 -14t97 -47t73.5 -96t27 -151v-348q0 -89 41 -126.5t123 -37.5l21 -20v-164l-21 -20 q-82 0 -123 -37.5t-41 -126.5v-348q0 -88 -27 -151t-73.5 -96t-97 -47t-109.5 -14h-123l-20 21v205z" />
<glyph unicode="~" horiz-adv-x="1351" d="M123 369q0 164 86.5 266t261.5 102q62 0 120 -19t100 -46t78.5 -54t70.5 -46t61 -19q82 0 82 102l21 21h204l21 -21q0 -160 -92.5 -264t-255.5 -104q-62 0 -120 19t-100 46t-78.5 54t-70.5 46t-61 19q-82 0 -82 -102l-21 -21h-205z" />
<glyph unicode="&#xa1;" horiz-adv-x="819" d="M246 737v267l20 20h287l20 -20v-267l-20 -20h-287zM266 61l41 471l21 21h164l20 -21l41 -471v-450l-21 -21h-245l-21 21v450z" />
<glyph unicode="&#xa2;" horiz-adv-x="1105" d="M61 512q0 223 119 360.5t312 171.5l20 21v82l20 20h82l21 -20v-82l20 -21q66 -9 127.5 -33t119 -64.5t96 -105t46.5 -145.5l-20 -20h-246l-20 20q-30 82 -103 82l-20 -20v-492l20 -20q73 0 103 82l20 20h246l20 -20q-8 -81 -46.5 -145.5t-96 -105t-119 -64.5t-127.5 -33 l-20 -21v-82l-21 -20h-82l-20 20v82l-20 21q-191 30 -311 170t-120 362zM348 512q0 -117 39 -182.5t105 -83.5l20 20v492l-20 20q-66 -18 -105 -83.5t-39 -182.5z" />
<glyph unicode="&#xa3;" horiz-adv-x="1310" d="M61 20v205l21 21h20q77 0 110.5 45t33.5 139v123l-21 20h-123l-20 21v164l20 20h123l21 21v184q0 103 28 187t84 148.5t147.5 100t211.5 35.5q220 0 335 -118.5t115 -311.5l-20 -20h-246l-20 20q0 104 -40.5 144t-123.5 40q-95 0 -140 -52.5t-45 -172.5v-184l21 -21h430 l21 -20v-164l-21 -21h-430l-21 -20v-123q0 -71 -22 -107t-59 -57v-20h778l20 -21v-205l-20 -20h-1147z" />
<glyph unicode="&#xa4;" horiz-adv-x="1392" d="M82 82v20l143 144v20q-18 24 -30 62q-31 79 -31 184t31 184q12 38 30 62v20l-143 144v20l184 184h21l143 -143h21q29 18 61 31q88 30 184 30q97 0 185 -30q32 -13 61 -31h21l143 143h20l185 -184v-20l-144 -144v-20q17 -28 31 -62q31 -91 31 -184t-31 -184 q-14 -34 -31 -62v-20l144 -144v-20l-185 -184h-20l-143 143h-21q-27 -20 -61 -31q-77 -30 -185 -30q-107 0 -184 30q-34 11 -61 31h-21l-143 -143h-21zM451 512q0 -45 7.5 -85t25.5 -77.5t45.5 -64.5t70 -43.5t96.5 -16.5t97 16.5t70.5 43.5t45.5 64.5t25.5 77.5t7.5 85 t-7.5 85t-25.5 77.5t-45.5 64.5t-70.5 43.5t-97 16.5t-96.5 -16.5t-70 -43.5t-45.5 -64.5t-25.5 -77.5t-7.5 -85z" />
<glyph unicode="&#xa5;" horiz-adv-x="1269" d="M82 1208v205l20 21h144l41 -21l327 -635h41l328 635l41 21h143l21 -21v-205l-225 -409v-21h143l20 -20v-164l-20 -21h-246l-41 -20l-41 -82l21 -20h245l21 -21v-164l-21 -20h-245l-21 -21v-205l-20 -20h-246l-20 20v205l-21 21h-246l-20 20v164l20 21h246l21 20l-41 82 l-41 20h-246l-21 21v164l21 20h143v21z" />
<glyph unicode="&#xa6;" horiz-adv-x="778" d="M246 20v553l20 21h246l20 -21v-553l-20 -20h-246zM246 860v553l20 21h246l20 -21v-553l-20 -20h-246z" />
<glyph unicode="&#xa7;" horiz-adv-x="1351" d="M82 573q0 112 55.5 179t128.5 88v20q-53 34 -88 97t-35 149q0 158 138 253t395 95q239 0 385.5 -111t146.5 -319l-20 -20h-246l-20 20q0 94 -64 139t-203 45q-225 0 -225 -123q0 -45 46.5 -79t120.5 -58.5t163.5 -49t179 -59t163.5 -79.5t120.5 -119t46.5 -170 q0 -112 -55.5 -178.5t-129.5 -87.5v-21q53 -34 88 -96.5t35 -148.5q0 -175 -128 -272t-384 -97q-127 0 -229.5 24.5t-180.5 75t-120.5 134.5t-42.5 196l20 20h246l21 -20q0 -94 67.5 -139t218.5 -45q130 0 178 37t48 106q0 35 -28.5 62.5t-77.5 46.5t-112 36t-132.5 35.5 t-139 41t-132.5 56.5t-112 78t-77.5 110t-28.5 148zM369 594q0 -49 21.5 -85t55.5 -56.5t87.5 -37.5t104.5 -27t121 -26.5t122 -33.5h20q46 17 64 45.5t18 77.5q0 40 -22 71.5t-55 52t-88 40.5t-104 33t-121 32.5t-122 36.5h-20q-46 -17 -64 -45.5t-18 -77.5z" />
<glyph unicode="&#xa8;" d="M225 1208v205l21 21h225l21 -21v-205l-21 -20h-225zM655 1208v205l21 21h225l21 -21v-205l-21 -20h-225z" />
<glyph unicode="&#xa9;" horiz-adv-x="1720" d="M123 717q0 151 58 287.5t156.5 235t235 156.5t287.5 58t287.5 -58t235 -156.5t156.5 -235t58 -287.5t-58 -287.5t-156.5 -235t-235 -156.5t-287.5 -58t-287.5 58t-235 156.5t-156.5 235t-58 287.5zM348 717q0 -232 142.5 -382.5t369.5 -150.5t369.5 150.5t142.5 382.5 t-142.5 382t-369.5 150t-369.5 -150t-142.5 -382zM492 717q0 191 102.5 290t265.5 99q64 0 121 -16.5t105.5 -49.5t81 -90t40.5 -131l-20 -20h-164l-20 20q-29 103 -144 103q-164 0 -164 -205t164 -205q115 0 144 102l20 21h164l20 -21q-8 -75 -40.5 -131.5t-81 -89.5 t-105.5 -49t-121 -16q-163 0 -265.5 99t-102.5 290z" />
<glyph unicode="&#xaa;" horiz-adv-x="1187" d="M164 1065q0 96 31 172.5t82 122.5t111.5 70t123.5 24q52 0 121 -31q28 -17 43 -30h20v20l21 21h205l20 -21v-430q0 -30 11.5 -45.5t29.5 -15.5h21l20 -21v-184l-20 -21h-123q-82 0 -144 62h-20q-28 -28 -49 -41q-59 -41 -156 -41q-63 0 -123.5 24t-111.5 70t-82 122.5 t-31 172.5zM225 553v20l21 21h737l21 -21v-20l-21 -21h-737zM410 1065q0 -84 44 -124t99 -40q143 0 143 164t-143 164q-55 0 -99 -40t-44 -124z" />
<glyph unicode="&#xab;" horiz-adv-x="1617" d="M164 451v122l20 41l328 328l41 21h246l20 -21v-82l-348 -328v-40l348 -328v-82l-20 -21h-246l-41 21l-328 328zM799 451v122l20 41l328 328l41 21h246l20 -21v-82l-348 -328v-40l348 -328v-82l-20 -21h-246l-41 21l-328 328z" />
<glyph unicode="&#xac;" horiz-adv-x="1187" d="M123 430v205l20 20h861l20 -20v-451l-20 -20h-205l-21 20v205l-20 21h-615z" />
<glyph unicode="&#xad;" horiz-adv-x="880" d="M123 430v205l20 20h594l21 -20v-205l-21 -20h-594z" />
<glyph unicode="&#xae;" horiz-adv-x="1720" d="M123 717q0 151 58 287.5t156.5 235t235 156.5t287.5 58t287.5 -58t235 -156.5t156.5 -235t58 -287.5t-58 -287.5t-156.5 -235t-235 -156.5t-287.5 -58t-287.5 58t-235 156.5t-156.5 235t-58 287.5zM348 717q0 -232 142.5 -382.5t369.5 -150.5t369.5 150.5t142.5 382.5 t-142.5 382t-369.5 150t-369.5 -150t-142.5 -382zM553 369v696l20 20h369q126 0 196 -62t70 -183q0 -76 -30 -125t-93 -80v-21l103 -143v-102l-21 -21h-102l-41 21l-143 204l-41 21h-62l-20 -21v-204l-21 -21h-164zM758 799l20 -21h164q62 0 62 62q0 61 -62 61h-164l-20 -20 v-82z" />
<glyph unicode="&#xaf;" horiz-adv-x="1024" d="M143 1188v184l21 21h696l21 -21v-184l-21 -21h-696z" />
<glyph unicode="&#xb0;" horiz-adv-x="1187" d="M164 1024q0 184 123 307t307 123t307 -123t123 -307t-123 -307t-307 -123t-307 123t-123 307zM430 1024q0 -91 42.5 -137.5t121.5 -46.5t121.5 46.5t42.5 137.5t-42.5 137.5t-121.5 46.5t-121.5 -46.5t-42.5 -137.5z" />
<glyph unicode="&#xb1;" horiz-adv-x="1187" d="M143 20v205l21 21h860l20 -21v-205l-20 -20h-860zM143 594v205l21 20h287l20 21v164l21 20h204l21 -20v-164l20 -21h287l20 -20v-205l-20 -21h-287l-20 -20v-164l-21 -20h-204l-21 20v164l-20 20h-287z" />
<glyph unicode="&#xb2;" horiz-adv-x="778" d="M102 717v164l21 41l205 122q70 41 96.5 75.5t26.5 68.5q0 61 -62 61q-61 0 -61 -61l-21 -21h-184l-21 21q0 125 74 195.5t213 70.5t213 -70.5t74 -195.5q0 -51 -17 -92t-51.5 -72.5t-69.5 -53.5t-87 -48v-21h225l20 -20v-164l-20 -21h-553z" />
<glyph unicode="&#xb3;" horiz-adv-x="757" d="M82 922l20 20h185l20 -20q0 -18 16 -29.5t46 -11.5q44 0 63 23.5t19 58.5q0 61 -62 61q-12 0 -29 -10l-12 -10h-61l-21 20v123l62 61v21h-205l-21 20v164l21 21h491l21 -21v-164l-21 -41l-61 -61v-21q34 -9 61 -30q62 -54 62 -154q0 -113 -80 -189.5t-227 -76.5 q-138 0 -212.5 66.5t-74.5 179.5z" />
<glyph unicode="&#xb4;" horiz-adv-x="1024" d="M266 1167v41l205 205l41 21h205l20 -21v-41l-225 -205l-41 -20h-184z" />
<glyph unicode="&#xb5;" horiz-adv-x="1310" d="M164 -389v1393l20 20h246l21 -20v-512q0 -115 50 -180.5t154 -65.5t154.5 66t50.5 180v512l21 20h245l21 -20v-984l-21 -20h-225l-20 20l-21 41h-20q-20 -20 -47 -41q-54 -40 -138 -40q-85 0 -139 40q-24 17 -45 41h-20v-450l-21 -21h-246z" />
<glyph unicode="&#xb6;" horiz-adv-x="1576" d="M123 1024q0 208 120 309t330 101h881l21 -21v-205l-21 -20h-123l-20 -21v-1556l-21 -21h-246l-20 21v1556l-20 21h-123l-21 -21v-1556l-20 -21h-246l-21 21v983l-20 20q-195 0 -312.5 102t-117.5 308z" />
<glyph unicode="&#xb7;" horiz-adv-x="655" d="M164 410v266l20 20h287l21 -20v-266l-21 -21h-287z" />
<glyph unicode="&#xb8;" horiz-adv-x="1024" d="M328 -328l20 21h21q20 -20 43.5 -29t42 -10.5t57.5 -1.5q50 0 76 18.5t26 63.5t-26 63.5t-76 18.5h-10q-31 0 -72 -21h-20l-21 21v20l164 164h82l-143 -143h20q39 20 72 20h10q52 0 87.5 -35t35.5 -108q0 -77 -55.5 -120.5t-149.5 -43.5q-62 0 -101 17.5t-83 64.5v20z " />
<glyph unicode="&#xb9;" horiz-adv-x="737" d="M102 717v164l21 20h143l21 21v225h-21l-61 -62h-62l-20 21v164l143 143l41 21h185l20 -21v-491l20 -21h103l20 -20v-164l-20 -21h-512z" />
<glyph unicode="&#xba;" horiz-adv-x="1105" d="M164 1065q0 169 110 279t279 110t279 -110t110 -279t-110 -279t-279 -110t-279 110t-110 279zM225 553v20l21 21h614l21 -21v-20l-21 -21h-614zM410 1065q0 -84 44 -124t99 -40t99 40t44 124t-44 124t-99 40t-99 -40t-44 -124z" />
<glyph unicode="&#xbb;" horiz-adv-x="1617" d="M164 82v82l348 328v40l-348 328v82l20 21h246l41 -21l328 -328l20 -41v-122l-20 -41l-328 -328l-41 -21h-246zM799 82v82l348 328v40l-348 328v82l20 21h246l41 -21l328 -328l20 -41v-122l-20 -41l-328 -328l-41 -21h-246z" />
<glyph unicode="&#xbc;" horiz-adv-x="1781" d="M102 717v164l21 20h143l21 21v225h-21l-61 -62h-62l-20 21v164l143 143l41 21h185l20 -21v-491l20 -21h103l20 -20v-164l-20 -21h-512zM430 20v205l778 1188l21 21h123l20 -21v-205l-778 -1188l-21 -20h-122zM942 143v185l21 41l348 348l41 20h204l21 -20v-697l-21 -20 h-184l-20 20v82l-21 21h-368zM1208 328h123l21 20v123h-21l-123 -123v-20z" />
<glyph unicode="&#xbd;" horiz-adv-x="1802" d="M102 717v164l21 20h143l21 21v225h-21l-61 -62h-62l-20 21v164l143 143l41 21h185l20 -21v-491l20 -21h103l20 -20v-164l-20 -21h-512zM430 20v205l778 1188l21 21h123l20 -21v-205l-778 -1188l-21 -20h-122zM1085 20v164l21 41l205 123q70 41 96.5 75.5t26.5 68.5 q0 61 -62 61q-61 0 -61 -61l-21 -21h-184l-21 21q0 125 74 195.5t213 70.5t213 -70.5t74 -195.5q0 -51 -17 -92t-51 -73t-69.5 -54.5t-87.5 -47.5v-20h225l20 -21v-164l-20 -20h-553z" />
<glyph unicode="&#xbe;" horiz-adv-x="1781" d="M102 922l21 20h184l21 -20q0 -18 15.5 -29.5t45.5 -11.5q44 0 63 23.5t19 58.5q0 61 -61 61q-12 0 -29 -10l-12 -10h-62l-20 20v123l61 61v21h-205l-20 20v164l20 21h492l20 -21v-164l-20 -41l-62 -61v-21q35 -9 62 -30q61 -53 61 -154q0 -113 -80 -189.5t-227 -76.5 q-138 0 -212.5 66.5t-74.5 179.5zM430 20v205l778 1188l21 21h123l20 -21v-205l-778 -1188l-21 -20h-122zM942 143v185l21 41l348 348l41 20h204l21 -20v-697l-21 -20h-184l-20 20v82l-21 21h-368zM1208 328h123l21 20v123h-21l-123 -123v-20z" />
<glyph unicode="&#xbf;" horiz-adv-x="1310" d="M164 -20q0 127 59 212.5t166 155.5q90 61 116.5 100.5t26.5 104.5l21 20h246l20 -20q0 -108 -45 -186.5t-139 -141.5q-100 -66 -142 -118.5t-42 -126.5q0 -67 52.5 -115.5t151.5 -48.5q111 0 158 51.5t47 173.5l21 20h245l21 -20q0 -103 -28 -187t-86 -148.5t-154 -100 t-224 -35.5q-127 0 -223.5 32.5t-154 89.5t-85.5 129.5t-28 158.5zM512 737v267l20 20h287l21 -20v-267l-21 -20h-287z" />
<glyph unicode="&#xc0;" horiz-adv-x="1331" d="M41 20v205l471 1188l20 21h267l20 -21l471 -1188v-205l-20 -20h-185l-20 20l-102 267l-41 20h-512l-41 -20l-103 -267l-20 -20h-185zM410 1782v41l20 20h205l41 -20l205 -205v-41l-21 -21h-184l-41 21zM471 573l21 -20h348l20 20l-184 492h-21z" />
<glyph unicode="&#xc1;" horiz-adv-x="1331" d="M41 20v205l471 1188l20 21h267l20 -21l471 -1188v-205l-20 -20h-185l-20 20l-102 267l-41 20h-512l-41 -20l-103 -267l-20 -20h-185zM451 1577v41l204 205l41 20h205l21 -20v-41l-226 -205l-41 -21h-184zM471 573l21 -20h348l20 20l-184 492h-21z" />
<glyph unicode="&#xc2;" horiz-adv-x="1331" d="M41 20v205l471 1188l20 21h267l20 -21l471 -1188v-205l-20 -20h-185l-20 20l-102 267l-41 20h-512l-41 -20l-103 -267l-20 -20h-185zM307 1577v41l205 205l41 20h225l41 -20l205 -205v-41l-20 -21h-164l-41 21l-123 102h-21l-123 -102l-40 -21h-164zM471 573l21 -20h348 l20 20l-184 492h-21z" />
<glyph unicode="&#xc3;" horiz-adv-x="1331" d="M41 20v205l471 1188l20 21h267l20 -21l471 -1188v-205l-20 -20h-185l-20 20l-102 267l-41 20h-512l-41 -20l-103 -267l-20 -20h-185zM307 1577q0 118 64 182t161 64q46 0 84.5 -15t64.5 -36t48 -42t45 -36t45 -15q32 0 47 18t15 64l20 21h103l20 -21q0 -118 -64 -181.5 t-161 -63.5q-56 0 -102.5 22.5t-72 49t-56 49t-56.5 22.5q-32 0 -46.5 -18t-14.5 -64l-21 -21h-102zM471 573l21 -20h348l20 20l-184 492h-21z" />
<glyph unicode="&#xc4;" horiz-adv-x="1331" d="M41 20v205l471 1188l20 21h267l20 -21l471 -1188v-205l-20 -20h-185l-20 20l-102 267l-41 20h-512l-41 -20l-103 -267l-20 -20h-185zM307 1577v205l21 20h225l20 -20v-205l-20 -21h-225zM471 573l21 -20h348l20 20l-184 492h-21zM758 1577v205l20 20h226l20 -20v-205 l-20 -21h-226z" />
<glyph unicode="&#xc5;" horiz-adv-x="1331" d="M41 20v205l471 1188l20 21h267l20 -21l471 -1188v-205l-20 -20h-185l-20 20l-102 267l-41 20h-512l-41 -20l-103 -267l-20 -20h-185zM430 1659q0 88 64 136t161 48h21q97 0 161 -48t64 -136t-64 -136t-161 -48h-21q-97 0 -161 48t-64 136zM471 573l21 -20h348l20 20 l-184 492h-21zM573 1659q0 -32 18 -47t64 -15h21q46 0 64 15t18 47t-18 46.5t-64 14.5h-21q-46 0 -64 -14.5t-18 -46.5z" />
<glyph unicode="&#xc6;" horiz-adv-x="2027" d="M41 20v205l655 1188l21 21h1167l21 -21v-205l-21 -20h-614l-21 -21v-286l21 -21h573l21 -20v-205l-21 -21h-573l-21 -20v-328l21 -20h614l21 -21v-205l-21 -20h-901l-20 20v226l-21 20h-532l-41 -20l-123 -226l-21 -20h-164zM532 532l21 -20h389l21 20v656h-62l-20 -21z " />
<glyph unicode="&#xc7;" horiz-adv-x="1454" d="M82 717q0 218 79 383t237.5 259.5t379.5 94.5q247 0 404.5 -113.5t189.5 -316.5l-20 -20h-246l-21 20q-61 184 -307 184q-105 0 -184.5 -36t-128 -102t-72.5 -154.5t-24 -198.5t24 -198.5t72.5 -155t128 -102.5t184.5 -36q126 0 201.5 48.5t105.5 156.5l21 21h246l20 -21 q-13 -89 -48.5 -161.5t-85.5 -122.5t-116 -85.5t-135.5 -54.5t-146.5 -26l-41 -21l-103 -102h21q39 20 71 20h11q52 0 87.5 -35t35.5 -108q0 -77 -55.5 -120.5t-149.5 -43.5q-62 0 -101.5 17.5t-83.5 64.5v20l21 21h20q28 -28 57.5 -34.5t86.5 -6.5q50 0 76 18.5t26 63.5 t-26 63.5t-76 18.5h-10q-31 0 -72 -21h-21l-20 21v20l123 123v21q-101 7 -192 37.5t-173 90.5t-141.5 143.5t-94 203t-34.5 262.5z" />
<glyph unicode="&#xc8;" horiz-adv-x="1290" d="M164 20v1393l20 21h963l20 -21v-205l-20 -20h-676l-20 -21v-286l20 -21h635l20 -20v-205l-20 -21h-635l-20 -20v-328l20 -20h676l20 -21v-205l-20 -20h-963zM389 1782v41l21 20h204l41 -20l205 -205v-41l-20 -21h-185l-41 21z" />
<glyph unicode="&#xc9;" horiz-adv-x="1290" d="M164 20v1393l20 21h963l20 -21v-205l-20 -20h-676l-20 -21v-286l20 -21h635l20 -20v-205l-20 -21h-635l-20 -20v-328l20 -20h676l20 -21v-205l-20 -20h-963zM471 1577v41l205 205l41 20h205l20 -20v-41l-225 -205l-41 -21h-184z" />
<glyph unicode="&#xca;" horiz-adv-x="1290" d="M164 20v1393l20 21h963l20 -21v-205l-20 -20h-676l-20 -21v-286l20 -21h635l20 -20v-205l-20 -21h-635l-20 -20v-328l20 -20h676l20 -21v-205l-20 -20h-963zM307 1577v41l205 205l41 20h225l41 -20l205 -205v-41l-20 -21h-164l-41 21l-123 102h-21l-123 -102l-40 -21 h-164z" />
<glyph unicode="&#xcb;" horiz-adv-x="1290" d="M164 20v1393l20 21h963l20 -21v-205l-20 -20h-676l-20 -21v-286l20 -21h635l20 -20v-205l-20 -21h-635l-20 -20v-328l20 -20h676l20 -21v-205l-20 -20h-963zM307 1618v205l21 20h225l20 -20v-205l-20 -21h-225zM758 1618v205l20 20h226l20 -20v-205l-20 -21h-226z" />
<glyph unicode="&#xcc;" horiz-adv-x="614" d="M20 1782v41l21 20h205l41 -20l205 -205v-41l-21 -21h-184l-41 21zM164 20v1393l20 21h246l21 -21v-1393l-21 -20h-246z" />
<glyph unicode="&#xcd;" horiz-adv-x="614" d="M123 1577v41l205 205l41 20h204l21 -20v-41l-225 -205l-41 -21h-185zM164 20v1393l20 21h246l21 -21v-1393l-21 -20h-246z" />
<glyph unicode="&#xce;" horiz-adv-x="614" d="M-61 1577v41l204 205l41 20h246l41 -20l205 -205v-41l-21 -21h-163l-41 21l-123 102h-41l-123 -102l-41 -21h-164zM164 20v1393l20 21h246l21 -21v-1393l-21 -20h-246z" />
<glyph unicode="&#xcf;" horiz-adv-x="614" d="M-41 1618v205l21 20h225l20 -20v-205l-20 -21h-225zM164 20v1393l20 21h246l21 -21v-1393l-21 -20h-246zM389 1618v205l21 20h225l20 -20v-205l-20 -21h-225z" />
<glyph unicode="&#xd0;" horiz-adv-x="1413" d="M0 614v205l20 21h123l21 20v553l20 21h451q189 0 324.5 -48t216 -143t118 -224t37.5 -302q0 -174 -37 -303.5t-118.5 -224t-216.5 -142t-324 -47.5h-451l-20 20v553l-21 21h-123zM451 266l20 -20h184q212 0 300.5 110.5t88.5 360.5t-88.5 360.5t-300.5 110.5h-184 l-20 -21v-307l20 -20h266l21 -21v-205l-21 -20h-266l-20 -21v-307z" />
<glyph unicode="&#xd1;" horiz-adv-x="1536" d="M164 20v1393l20 21h287l41 -21l553 -942h20v942l21 21h246l20 -21v-1393l-20 -20h-287l-41 20l-553 943h-20v-943l-21 -20h-246zM410 1577q0 118 64 182t161 64q46 0 84.5 -15t64.5 -36t48 -42t45 -36t45 -15q32 0 46.5 18t14.5 64l21 21h102l20 -21q0 -118 -64 -181.5 t-161 -63.5q-56 0 -102.5 22.5t-72 49t-56 49t-56.5 22.5q-32 0 -46.5 -18t-14.5 -64l-21 -21h-102z" />
<glyph unicode="&#xd2;" horiz-adv-x="1556" d="M82 717q0 216 83 382.5t242 260.5t371 94t371 -94t242.5 -260.5t83.5 -382.5t-83.5 -382.5t-242.5 -260.5t-371 -94t-371 94t-242 260.5t-83 382.5zM369 717q0 -221 107 -356.5t302 -135.5t302.5 135.5t107.5 356.5t-107.5 356t-302.5 135t-302 -135t-107 -356zM512 1782 v41l20 20h205l41 -20l205 -205v-41l-20 -21h-185l-41 21z" />
<glyph unicode="&#xd3;" horiz-adv-x="1556" d="M82 717q0 216 83 382.5t242 260.5t371 94t371 -94t242.5 -260.5t83.5 -382.5t-83.5 -382.5t-242.5 -260.5t-371 -94t-371 94t-242 260.5t-83 382.5zM369 717q0 -221 107 -356.5t302 -135.5t302.5 135.5t107.5 356.5t-107.5 356t-302.5 135t-302 -135t-107 -356zM573 1577 v41l205 205l41 20h205l20 -20v-41l-225 -205l-41 -21h-184z" />
<glyph unicode="&#xd4;" horiz-adv-x="1556" d="M82 717q0 216 83 382.5t242 260.5t371 94t371 -94t242.5 -260.5t83.5 -382.5t-83.5 -382.5t-242.5 -260.5t-371 -94t-371 94t-242 260.5t-83 382.5zM369 717q0 -221 107 -356.5t302 -135.5t302.5 135.5t107.5 356.5t-107.5 356t-302.5 135t-302 -135t-107 -356zM410 1577 v41l204 205l41 20h246l41 -20l205 -205v-41l-21 -21h-163l-41 21l-123 102h-41l-123 -102l-41 -21h-164z" />
<glyph unicode="&#xd5;" horiz-adv-x="1556" d="M82 717q0 216 83 382.5t242 260.5t371 94t371 -94t242.5 -260.5t83.5 -382.5t-83.5 -382.5t-242.5 -260.5t-371 -94t-371 94t-242 260.5t-83 382.5zM369 717q0 -221 107 -356.5t302 -135.5t302.5 135.5t107.5 356.5t-107.5 356t-302.5 135t-302 -135t-107 -356zM430 1577 q0 118 64 182t161 64q46 0 84.5 -15t64.5 -36t48 -42t45 -36t45 -15q32 0 47 18t15 64l20 21h102l21 -21q0 -118 -64 -181.5t-161 -63.5q-56 0 -102.5 22.5t-72 49t-56 49t-56.5 22.5q-32 0 -47 -18t-15 -64l-20 -21h-102z" />
<glyph unicode="&#xd6;" horiz-adv-x="1556" d="M82 717q0 216 83 382.5t242 260.5t371 94t371 -94t242.5 -260.5t83.5 -382.5t-83.5 -382.5t-242.5 -260.5t-371 -94t-371 94t-242 260.5t-83 382.5zM369 717q0 -221 107 -356.5t302 -135.5t302.5 135.5t107.5 356.5t-107.5 356t-302.5 135t-302 -135t-107 -356zM430 1618 v205l21 20h225l20 -20v-205l-20 -21h-225zM860 1618v205l21 20h225l20 -20v-205l-20 -21h-225z" />
<glyph unicode="&#xd7;" horiz-adv-x="1249" d="M123 164v20l328 328v20l-328 328v21l143 143h21l327 -328h21l328 328h20l143 -143v-21l-327 -328v-20l327 -328v-20l-143 -144h-20l-328 328h-21l-327 -328h-21z" />
<glyph unicode="&#xd8;" horiz-adv-x="1556" d="M82 717q0 216 83 382.5t242 260.5t371 94q287 0 451 -164h20l103 103l41 20h20l21 -20v-103l-82 -82v-41q123 -185 123 -450q0 -216 -83.5 -382.5t-242.5 -260.5t-371 -94q-278 0 -471 163h-20l-82 -82l-41 -20h-21l-20 20v103l82 82v20q-123 184 -123 451zM369 717 q0 -77 11.5 -146t29.5 -100h20l614 614v21q-102 102 -266 102q-195 0 -302 -135t-107 -356zM512 328q48 -48 118.5 -75.5t147.5 -27.5q195 0 302.5 135.5t107.5 356.5q0 77 -11.5 146t-29.5 100h-41l-594 -594v-41z" />
<glyph unicode="&#xd9;" horiz-adv-x="1474" d="M164 553v860l20 21h246l21 -21v-860q0 -328 286 -328q287 0 287 328v860l20 21h246l21 -21v-860q0 -281 -146.5 -427t-427.5 -146t-427 146t-146 427zM451 1782v41l20 20h205l41 -20l205 -205v-41l-21 -21h-184l-41 21z" />
<glyph unicode="&#xda;" horiz-adv-x="1474" d="M164 553v860l20 21h246l21 -21v-860q0 -328 286 -328q287 0 287 328v860l20 21h246l21 -21v-860q0 -281 -146.5 -427t-427.5 -146t-427 146t-146 427zM553 1577v41l205 205l41 20h205l20 -20v-41l-225 -205l-41 -21h-185z" />
<glyph unicode="&#xdb;" horiz-adv-x="1474" d="M164 553v860l20 21h246l21 -21v-860q0 -328 286 -328q287 0 287 328v860l20 21h246l21 -21v-860q0 -281 -146.5 -427t-427.5 -146t-427 146t-146 427zM369 1577v41l204 205l41 20h246l41 -20l205 -205v-41l-21 -21h-163l-41 21l-123 102h-41l-123 -102l-41 -21h-164z" />
<glyph unicode="&#xdc;" horiz-adv-x="1474" d="M164 553v860l20 21h246l21 -21v-860q0 -328 286 -328q287 0 287 328v860l20 21h246l21 -21v-860q0 -281 -146.5 -427t-427.5 -146t-427 146t-146 427zM369 1618v205l20 20h225l21 -20v-205l-21 -21h-225zM819 1618v205l21 20h225l20 -20v-205l-20 -21h-225z" />
<glyph unicode="&#xdd;" horiz-adv-x="1228" d="M61 1208v205l21 21h143l41 -21l328 -553h41l328 553l41 21h143l20 -21v-205l-409 -676v-512l-21 -20h-245l-21 20v512zM430 1577v41l205 205l41 20h205l20 -20v-41l-225 -205l-41 -21h-184z" />
<glyph unicode="&#xde;" horiz-adv-x="1310" d="M164 20v1393l20 21h246l21 -21v-266l20 -21h287q218 0 344.5 -106.5t126.5 -302.5q0 -194 -131.5 -302t-339.5 -108h-287l-20 -20v-267l-21 -20h-246zM451 573l20 -20h287q104 0 144 40.5t40 123.5t-40 123.5t-144 40.5h-287l-20 -21v-287z" />
<glyph unicode="&#xdf;" horiz-adv-x="1290" d="M41 840v164l20 20h103l20 20q0 186 132.5 298t359.5 112q219 0 345 -113.5t126 -275.5q0 -106 -51 -180.5t-133 -106.5v-20q49 -9 94 -32.5t84.5 -62.5t63.5 -99.5t24 -133.5q0 -85 -31.5 -164.5t-89 -144t-149 -103t-201.5 -38.5q-78 0 -140 20q-26 9 -45 20l-20 21v184 l20 21q12 -5 41 -10q57 -11 103 -11q110 0 167.5 58t57.5 168q0 53 -17 91.5t-43 60t-69 33.5t-82.5 15.5t-95.5 3.5l-21 21v164l21 20q109 0 167 42.5t58 121.5q0 184 -184 184q-115 0 -160 -48.5t-45 -135.5v-1004l-20 -20h-246l-21 20v779l-20 20h-103z" />
<glyph unicode="&#xe0;" horiz-adv-x="1064" d="M61 307q0 73 21.5 131.5t59.5 95t82.5 62t98.5 37.5t98 17t91 5q50 0 102 -10l41 -10l21 20v21q0 77 -26.5 100t-117.5 23h-12q-26 0 -42 -1.5t-35.5 -7t-32.5 -19t-21 -34.5l-20 -20h-246l-21 20q0 50 22 100.5t69 98.5t135 78t204 30q237 0 334 -115.5t97 -355.5v-553 l-21 -20h-225l-21 20l-20 41h-21q-40 -31 -59 -41q-68 -40 -166 -40q-172 0 -270.5 87t-98.5 240zM266 1372v41l21 21h205l40 -21l205 -205v-41l-20 -20h-185l-40 20zM348 328q0 -103 144 -103q78 0 131 41.5t53 102.5v41l-21 20l-30 10q-42 11 -93 11q-184 0 -184 -123z " />
<glyph unicode="&#xe1;" horiz-adv-x="1064" d="M61 307q0 73 21.5 131.5t59.5 95t82.5 62t98.5 37.5t98 17t91 5q50 0 102 -10l41 -10l21 20v21q0 77 -26.5 100t-117.5 23h-12q-26 0 -42 -1.5t-35.5 -7t-32.5 -19t-21 -34.5l-20 -20h-246l-21 20q0 50 22 100.5t69 98.5t135 78t204 30q237 0 334 -115.5t97 -355.5v-553 l-21 -20h-225l-21 20l-20 41h-21q-40 -31 -59 -41q-68 -40 -166 -40q-172 0 -270.5 87t-98.5 240zM328 1167v41l204 205l41 21h205l21 -21v-41l-226 -205l-41 -20h-184zM348 328q0 -103 144 -103q78 0 131 41.5t53 102.5v41l-21 20l-30 10q-42 11 -93 11q-184 0 -184 -123z " />
<glyph unicode="&#xe2;" horiz-adv-x="1064" d="M61 307q0 73 21.5 131.5t59.5 95t82.5 62t98.5 37.5t98 17t91 5q50 0 102 -10l41 -10l21 20v21q0 77 -26.5 100t-117.5 23h-12q-26 0 -42 -1.5t-35.5 -7t-32.5 -19t-21 -34.5l-20 -20h-246l-21 20q0 50 22 100.5t69 98.5t135 78t204 30q237 0 334 -115.5t97 -355.5v-553 l-21 -20h-225l-21 20l-20 41h-21q-40 -31 -59 -41q-68 -40 -166 -40q-172 0 -270.5 87t-98.5 240zM164 1167v41l205 205l41 21h245l41 -21l205 -205v-41l-20 -20h-164l-41 20l-123 103h-41l-123 -103l-41 -20h-164zM348 328q0 -103 144 -103q78 0 131 41.5t53 102.5v41 l-21 20l-30 10q-42 11 -93 11q-184 0 -184 -123z" />
<glyph unicode="&#xe3;" horiz-adv-x="1064" d="M61 307q0 73 21.5 131.5t59.5 95t82.5 62t98.5 37.5t98 17t91 5q50 0 102 -10l41 -10l21 20v21q0 77 -26.5 100t-117.5 23h-12q-26 0 -42 -1.5t-35.5 -7t-32.5 -19t-21 -34.5l-20 -20h-246l-21 20q0 50 22 100.5t69 98.5t135 78t204 30q237 0 334 -115.5t97 -355.5v-553 l-21 -20h-225l-21 20l-20 41h-21q-40 -31 -59 -41q-68 -40 -166 -40q-172 0 -270.5 87t-98.5 240zM184 1167q0 118 64.5 182t161.5 64q56 0 102.5 -22.5t71.5 -49t55.5 -49t56.5 -22.5q32 0 47 18t15 64l20 20h103l20 -20q0 -118 -64 -182t-161 -64q-56 0 -102.5 22.5 t-72 49t-56 49t-56.5 22.5q-32 0 -46.5 -18t-14.5 -64l-21 -20h-102zM348 328q0 -103 144 -103q78 0 131 41.5t53 102.5v41l-21 20l-30 10q-42 11 -93 11q-184 0 -184 -123z" />
<glyph unicode="&#xe4;" horiz-adv-x="1064" d="M61 307q0 73 21.5 131.5t59.5 95t82.5 62t98.5 37.5t98 17t91 5q50 0 102 -10l41 -10l21 20v21q0 77 -26.5 100t-117.5 23h-12q-26 0 -42 -1.5t-35.5 -7t-32.5 -19t-21 -34.5l-20 -20h-246l-21 20q0 50 22 100.5t69 98.5t135 78t204 30q237 0 334 -115.5t97 -355.5v-553 l-21 -20h-225l-21 20l-20 41h-21q-40 -31 -59 -41q-68 -40 -166 -40q-172 0 -270.5 87t-98.5 240zM184 1208v205l21 21h225l21 -21v-205l-21 -20h-225zM348 328q0 -103 144 -103q78 0 131 41.5t53 102.5v41l-21 20l-30 10q-42 11 -93 11q-184 0 -184 -123zM614 1208v205 l21 21h225l21 -21v-205l-21 -20h-225z" />
<glyph unicode="&#xe5;" horiz-adv-x="1064" d="M61 307q0 73 21.5 131.5t59.5 95t82.5 62t98.5 37.5t98 17t91 5q50 0 102 -10l41 -10l21 20v21q0 77 -26.5 100t-117.5 23h-12q-26 0 -42 -1.5t-35.5 -7t-32.5 -19t-21 -34.5l-20 -20h-246l-21 20q0 50 22 100.5t69 98.5t135 78t204 30q237 0 334 -115.5t97 -355.5v-553 l-21 -20h-225l-21 20l-20 41h-21q-40 -31 -59 -41q-68 -40 -166 -40q-172 0 -270.5 87t-98.5 240zM307 1290q0 88 64 136.5t161 48.5t161.5 -48.5t64.5 -136.5t-64 -136t-162 -48q-97 0 -161 48t-64 136zM348 328q0 -103 144 -103q78 0 131 41.5t53 102.5v41l-21 20l-30 10 q-42 11 -93 11q-184 0 -184 -123zM451 1290q0 -32 17.5 -46.5t63.5 -14.5t64 14.5t18 46.5t-18 47t-64 15q-45 0 -63 -15t-18 -47z" />
<glyph unicode="&#xe6;" horiz-adv-x="1720" d="M61 307q0 73 21.5 131.5t59.5 95t82.5 62t98.5 37.5t98 17t91 5q50 0 102 -10l41 -10l21 20v21q0 77 -26.5 100t-117.5 23h-12q-26 0 -42 -1.5t-35.5 -7t-32.5 -19t-21 -34.5l-20 -20h-246l-21 20q0 50 22 100.5t69 98.5t135 78t204 30q109 0 194.5 -27t133.5 -75h21 q102 102 286 102q119 0 214.5 -42.5t155 -116t91 -169t31.5 -204.5v-82l-21 -20h-634l-21 -21q0 -19 9.5 -43.5t30.5 -53t64.5 -48t100.5 -19.5q49 0 87.5 16t55.5 46l21 20h245l21 -20q-7 -40 -23 -79.5t-49 -81.5t-79 -73.5t-118.5 -52t-160.5 -20.5q-118 0 -208 39 t-140 104h-21q-19 -19 -33 -31.5t-50.5 -36t-74.5 -38t-99.5 -26t-131.5 -11.5q-172 0 -270.5 87t-98.5 240zM348 328q0 -103 144 -103q78 0 131 41.5t53 102.5v41l-21 20l-30 10q-42 11 -93 11q-184 0 -184 -123zM983 635l21 -21h327l21 21q0 10 -3 26t-15 41.5t-30.5 46 t-54.5 35.5t-82 15q-57 0 -97 -21.5t-57 -53t-23.5 -53.5t-6.5 -36z" />
<glyph unicode="&#xe7;" horiz-adv-x="1105" d="M61 512q0 244 140.5 388t371.5 144q182 0 311 -86.5t160 -261.5l-20 -20h-246l-20 20q-38 103 -185 103q-110 0 -167.5 -73t-57.5 -214t57.5 -214t167.5 -73q147 0 185 103l20 20h246l20 -20q-15 -88 -57.5 -155t-101 -105.5t-114.5 -59t-116 -28.5l-41 -21l-102 -102h20 q39 20 72 20h10q52 0 87.5 -35t35.5 -108q0 -77 -55.5 -120.5t-149.5 -43.5q-62 0 -101 17.5t-83 64.5v20l21 21h20q20 -20 43.5 -29t42 -10.5t57.5 -1.5q51 0 77 18.5t26 63.5t-26 63.5t-77 18.5h-10q-30 0 -71 -21h-21l-20 21v20l122 123v21q-217 17 -344 160.5 t-127 371.5z" />
<glyph unicode="&#xe8;" horiz-adv-x="1105" d="M61 512q0 109 31.5 204.5t91 169t155 116t214.5 42.5q96 0 176.5 -28t138 -77t97.5 -116t59.5 -145.5t19.5 -165.5v-82l-20 -20h-635l-20 -21q0 -19 9.5 -43.5t30.5 -53t64 -48t100 -19.5q49 0 88 16t56 46l20 20h246l21 -20q-7 -40 -23 -79.5t-49.5 -81.5t-79.5 -73.5 t-118.5 -52t-160.5 -20.5q-127 0 -227 42.5t-161 116.5t-92.5 168.5t-31.5 204.5zM266 1372v41l21 21h205l40 -21l205 -205v-41l-20 -20h-185l-40 20zM369 635l20 -21h328l20 21q0 14 -6.5 36t-23.5 53.5t-57 53t-97 21.5t-97 -21.5t-57 -53t-23.5 -53.5t-6.5 -36z" />
<glyph unicode="&#xe9;" horiz-adv-x="1105" d="M61 512q0 109 31.5 204.5t91 169t155 116t214.5 42.5q96 0 176.5 -28t138 -77t97.5 -116t59.5 -145.5t19.5 -165.5v-82l-20 -20h-635l-20 -21q0 -19 9.5 -43.5t30.5 -53t64 -48t100 -19.5q49 0 88 16t56 46l20 20h246l21 -20q-7 -40 -23 -79.5t-49.5 -81.5t-79.5 -73.5 t-118.5 -52t-160.5 -20.5q-127 0 -227 42.5t-161 116.5t-92.5 168.5t-31.5 204.5zM369 635l20 -21h328l20 21q0 14 -6.5 36t-23.5 53.5t-57 53t-97 21.5t-97 -21.5t-57 -53t-23.5 -53.5t-6.5 -36zM369 1167v41l204 205l41 21h205l21 -21v-41l-226 -205l-41 -20h-184z" />
<glyph unicode="&#xea;" horiz-adv-x="1105" d="M61 512q0 109 31.5 204.5t91 169t155 116t214.5 42.5q96 0 176.5 -28t138 -77t97.5 -116t59.5 -145.5t19.5 -165.5v-82l-20 -20h-635l-20 -21q0 -19 9.5 -43.5t30.5 -53t64 -48t100 -19.5q49 0 88 16t56 46l20 20h246l21 -20q-7 -40 -23 -79.5t-49.5 -81.5t-79.5 -73.5 t-118.5 -52t-160.5 -20.5q-127 0 -227 42.5t-161 116.5t-92.5 168.5t-31.5 204.5zM184 1167v41l205 205l41 21h246l41 -21l205 -205v-41l-21 -20h-164l-41 20l-123 103h-41l-122 -103l-41 -20h-164zM369 635l20 -21h328l20 21q0 14 -6.5 36t-23.5 53.5t-57 53t-97 21.5 t-97 -21.5t-57 -53t-23.5 -53.5t-6.5 -36z" />
<glyph unicode="&#xeb;" horiz-adv-x="1105" d="M61 512q0 109 31.5 204.5t91 169t155 116t214.5 42.5q96 0 176.5 -28t138 -77t97.5 -116t59.5 -145.5t19.5 -165.5v-82l-20 -20h-635l-20 -21q0 -19 9.5 -43.5t30.5 -53t64 -48t100 -19.5q49 0 88 16t56 46l20 20h246l21 -20q-7 -40 -23 -79.5t-49.5 -81.5t-79.5 -73.5 t-118.5 -52t-160.5 -20.5q-127 0 -227 42.5t-161 116.5t-92.5 168.5t-31.5 204.5zM205 1208v205l20 21h226l20 -21v-205l-20 -20h-226zM369 635l20 -21h328l20 21q0 14 -6.5 36t-23.5 53.5t-57 53t-97 21.5t-97 -21.5t-57 -53t-23.5 -53.5t-6.5 -36zM635 1208v205l20 21h226 l20 -21v-205l-20 -20h-226z" />
<glyph unicode="&#xec;" horiz-adv-x="532" d="M-20 1372v41l20 21h205l41 -21l205 -205v-41l-21 -20h-184l-41 20zM123 20v984l20 20h246l21 -20v-984l-21 -20h-246z" />
<glyph unicode="&#xed;" horiz-adv-x="532" d="M82 1167v41l205 205l41 21h204l21 -21v-41l-225 -205l-41 -20h-185zM123 20v984l20 20h246l21 -20v-984l-21 -20h-246z" />
<glyph unicode="&#xee;" horiz-adv-x="532" d="M-102 1167v41l204 205l41 21h246l41 -21l205 -205v-41l-21 -20h-163l-41 20l-123 103h-41l-123 -103l-41 -20h-164zM123 20v984l20 20h246l21 -20v-984l-21 -20h-246z" />
<glyph unicode="&#xef;" horiz-adv-x="532" d="M-82 1208v205l21 21h225l20 -21v-205l-20 -20h-225zM123 20v984l20 20h246l21 -20v-984l-21 -20h-246zM348 1208v205l21 21h225l20 -21v-205l-20 -20h-225z" />
<glyph unicode="&#xf0;" d="M82 512q0 248 118 390t332 142q107 0 175 -40q26 -16 51 -41h20q-30 121 -123 184h-20l-41 -41l-41 -21h-123l-20 21v82l20 20v21q-59 20 -104 20h-39l-21 21v20l123 123l41 21h27q73 0 157 -21h21l41 41l41 21h123l20 -21v-82l-41 -41v-20q140 -124 203 -307t63 -472 q0 -265 -132.5 -408.5t-379.5 -143.5q-103 0 -190.5 32t-155.5 95t-106.5 167t-38.5 238zM369 512q0 -138 55 -212.5t149 -74.5q113 0 169.5 68.5t56.5 218.5t-56.5 218.5t-169.5 68.5q-94 0 -149 -74.5t-55 -212.5z" />
<glyph unicode="&#xf1;" horiz-adv-x="1187" d="M123 20v984l20 20h226l20 -20l21 -62h20q102 102 266 102q182 0 285.5 -111t103.5 -298v-615l-20 -20h-246l-20 20v594q0 185 -164 185q-112 0 -168.5 -64.5t-56.5 -202.5v-512l-21 -20h-246zM246 1167q0 118 64 182t161 64q56 0 102.5 -22.5t72 -49t56 -49t56.5 -22.5 q32 0 46.5 18t14.5 64l21 20h102l21 -20q0 -118 -64.5 -182t-161.5 -64q-56 0 -102.5 22.5t-71.5 49t-55.5 49t-56.5 22.5q-32 0 -47 -18t-15 -64l-20 -20h-103z" />
<glyph unicode="&#xf2;" d="M61 512q0 244 140.5 388t371.5 144t371.5 -144t140.5 -388t-140.5 -388t-371.5 -144t-371.5 144t-140.5 388zM307 1372v41l21 21h204l41 -21l205 -205v-41l-20 -20h-185l-41 20zM348 512q0 -141 57.5 -214t167.5 -73t168 73t58 214t-58 214t-168 73t-167.5 -73 t-57.5 -214z" />
<glyph unicode="&#xf3;" d="M61 512q0 244 140.5 388t371.5 144t371.5 -144t140.5 -388t-140.5 -388t-371.5 -144t-371.5 144t-140.5 388zM348 512q0 -141 57.5 -214t167.5 -73t168 73t58 214t-58 214t-168 73t-167.5 -73t-57.5 -214zM369 1167v41l204 205l41 21h205l21 -21v-41l-226 -205l-41 -20 h-184z" />
<glyph unicode="&#xf4;" d="M61 512q0 244 140.5 388t371.5 144t371.5 -144t140.5 -388t-140.5 -388t-371.5 -144t-371.5 144t-140.5 388zM184 1167v41l205 205l41 21h246l41 -21l205 -205v-41l-21 -20h-164l-41 20l-123 103h-41l-122 -103l-41 -20h-164zM348 512q0 -141 57.5 -214t167.5 -73t168 73 t58 214t-58 214t-168 73t-167.5 -73t-57.5 -214z" />
<glyph unicode="&#xf5;" d="M61 512q0 244 140.5 388t371.5 144t371.5 -144t140.5 -388t-140.5 -388t-371.5 -144t-371.5 144t-140.5 388zM205 1167q0 118 64 182t161 64q56 0 102.5 -22.5t72 -49t56 -49t56.5 -22.5q32 0 46.5 18t14.5 64l21 20h102l21 -20q0 -118 -64.5 -182t-161.5 -64 q-56 0 -102.5 22.5t-71.5 49t-55.5 49t-56.5 22.5q-32 0 -47 -18t-15 -64l-20 -20h-103zM348 512q0 -141 57.5 -214t167.5 -73t168 73t58 214t-58 214t-168 73t-167.5 -73t-57.5 -214z" />
<glyph unicode="&#xf6;" d="M61 512q0 244 140.5 388t371.5 144t371.5 -144t140.5 -388t-140.5 -388t-371.5 -144t-371.5 144t-140.5 388zM225 1208v205l21 21h225l21 -21v-205l-21 -20h-225zM348 512q0 -141 57.5 -214t167.5 -73t168 73t58 214t-58 214t-168 73t-167.5 -73t-57.5 -214zM655 1208 v205l21 21h225l21 -21v-205l-21 -20h-225z" />
<glyph unicode="&#xf7;" horiz-adv-x="1228" d="M123 389v225l20 21h942l21 -21v-225l-21 -20h-942zM451 20v205l20 21h287l20 -21v-205l-20 -20h-287zM451 778v205l20 21h287l20 -21v-205l-20 -20h-287z" />
<glyph unicode="&#xf8;" d="M61 512q0 244 140.5 388t371.5 144q195 0 328 -102h21l41 41l41 21h20l20 -21v-102l-40 -41v-21q81 -105 81 -307q0 -244 -140.5 -388t-371.5 -144q-194 0 -327 102h-21l-41 -41l-41 -21h-20l-21 21v102l41 41v21q-82 107 -82 307zM348 410h21l348 327v21q-41 41 -144 41 q-110 0 -167.5 -73t-57.5 -214v-102zM430 266q41 -41 143 -41q110 0 168 73t58 214v102h-21l-348 -327v-21z" />
<glyph unicode="&#xf9;" horiz-adv-x="1167" d="M102 389v615l21 20h246l20 -20v-594q0 -185 164 -185q104 0 154.5 66t50.5 180v533l20 20h246l20 -20v-984l-20 -20h-225l-21 20l-20 62h-21q-23 -33 -53 -51q-74 -51 -192 -51q-182 0 -286 111t-104 298zM307 1372v41l21 21h204l41 -21l205 -205v-41l-20 -20h-185 l-41 20z" />
<glyph unicode="&#xfa;" horiz-adv-x="1167" d="M102 389v615l21 20h246l20 -20v-594q0 -185 164 -185q104 0 154.5 66t50.5 180v533l20 20h246l20 -20v-984l-20 -20h-225l-21 20l-20 62h-21q-23 -33 -53 -51q-74 -51 -192 -51q-182 0 -286 111t-104 298zM369 1167v41l204 205l41 21h205l21 -21v-41l-226 -205l-41 -20 h-184z" />
<glyph unicode="&#xfb;" horiz-adv-x="1167" d="M102 389v615l21 20h246l20 -20v-594q0 -185 164 -185q104 0 154.5 66t50.5 180v533l20 20h246l20 -20v-984l-20 -20h-225l-21 20l-20 62h-21q-23 -33 -53 -51q-74 -51 -192 -51q-182 0 -286 111t-104 298zM205 1167v41l205 205l41 21h245l41 -21l205 -205v-41l-20 -20 h-164l-41 20l-123 103h-41l-123 -103l-41 -20h-164z" />
<glyph unicode="&#xfc;" horiz-adv-x="1167" d="M102 389v615l21 20h246l20 -20v-594q0 -185 164 -185q104 0 154.5 66t50.5 180v533l20 20h246l20 -20v-984l-20 -20h-225l-21 20l-20 62h-21q-23 -33 -53 -51q-74 -51 -192 -51q-182 0 -286 111t-104 298zM225 1208v205l21 21h225l21 -21v-205l-21 -20h-225zM655 1208 v205l21 21h225l21 -21v-205l-21 -20h-225z" />
<glyph unicode="&#xfd;" horiz-adv-x="1085" d="M61 799v205l21 20h184l21 -20l245 -697h21l246 697l20 20h185l20 -20v-205l-328 -819q-27 -68 -51 -113.5t-60.5 -89.5t-81 -69t-109 -40.5t-148.5 -15.5h-103l-20 20v205l20 21h103q73 0 99 16.5t44 65.5v20zM348 1167v41l205 205l41 21h205l20 -21v-41l-225 -205 l-41 -20h-184z" />
<glyph unicode="&#xfe;" horiz-adv-x="1228" d="M123 -389v1802l20 21h246l21 -21v-471h20q34 34 64 51q88 51 202 51q190 0 320.5 -146.5t130.5 -385.5q0 -120 -36 -221t-97.5 -168.5t-143.5 -105t-174 -37.5q-121 0 -202 51q-30 17 -64 51h-20v-471l-21 -21h-246zM410 512q0 -132 54 -209.5t171 -77.5t171 77.5 t54 209.5t-54 209.5t-171 77.5t-171 -77.5t-54 -209.5z" />
<glyph unicode="&#xff;" horiz-adv-x="1085" d="M61 799v205l21 20h184l21 -20l245 -697h21l246 697l20 20h185l20 -20v-205l-328 -819q-27 -68 -51 -113.5t-60.5 -89.5t-81 -69t-109 -40.5t-148.5 -15.5h-103l-20 20v205l20 21h103q73 0 99 16.5t44 65.5v20zM184 1208v205l21 21h225l21 -21v-205l-21 -20h-225z M635 1208v205l20 21h226l20 -21v-205l-20 -20h-226z" />
<glyph unicode="&#x152;" horiz-adv-x="2109" d="M61 717q0 155 35 280.5t94 209.5t141 140.5t173 81.5t192 25q109 0 194.5 -27t133.5 -75h20v61l21 21h901l21 -21v-205l-21 -20h-614l-21 -21v-286l21 -21h573l21 -20v-205l-21 -21h-573l-21 -20v-328l21 -20h614l21 -21v-205l-21 -20h-901l-21 20v62h-20 q-48 -48 -133.5 -75t-194.5 -27q-101 0 -192 25t-173 81.5t-141 140.5t-94 209.5t-35 280.5zM348 717q0 -492 369 -492q262 0 327 164v655q-65 164 -327 164q-193 0 -281 -126.5t-88 -364.5z" />
<glyph unicode="&#x153;" horiz-adv-x="1822" d="M61 512q0 244 140.5 388t371.5 144q115 0 206 -35t143 -87h20q122 122 328 122q96 0 176.5 -28t138 -77t97.5 -116t59.5 -145.5t19.5 -165.5v-82l-20 -20h-635l-21 -21q0 -19 9.5 -43.5t30.5 -53t64.5 -48t100.5 -19.5q49 0 88 16t56 46l20 20h246l20 -20 q-7 -40 -23 -79.5t-49 -81.5t-79 -73.5t-118.5 -52t-160.5 -20.5q-226 0 -348 122h-20q-52 -52 -143 -87t-206 -35q-231 0 -371.5 144t-140.5 388zM348 512q0 -141 57.5 -214t167.5 -73t168 73t58 214t-58 214t-168 73t-167.5 -73t-57.5 -214zM1085 635l21 -21h328l20 21 q0 14 -6.5 36t-23.5 53.5t-57 53t-97 21.5q-46 0 -82 -15t-54.5 -35.5t-30.5 -46t-15 -41.5t-3 -26z" />
<glyph unicode="&#x178;" horiz-adv-x="1228" d="M61 1208v205l21 21h143l41 -21l328 -553h41l328 553l41 21h143l20 -21v-205l-409 -676v-512l-21 -20h-245l-21 20v512zM266 1618v205l21 20h225l20 -20v-205l-20 -21h-225zM696 1618v205l21 20h225l21 -20v-205l-21 -21h-225z" />
<glyph unicode="&#x2c6;" horiz-adv-x="1024" d="M143 1167v41l205 205l41 21h246l41 -21l205 -205v-41l-21 -20h-164l-41 20l-123 103h-40l-123 -103l-41 -20h-164z" />
<glyph unicode="&#x2dc;" horiz-adv-x="1024" d="M143 1167q0 118 64.5 182t161.5 64q56 0 102.5 -22.5t71.5 -49t55.5 -49t56.5 -22.5q32 0 47 18t15 64l20 20h103l20 -20q0 -118 -64 -182t-161 -64q-56 0 -102.5 22.5t-72 49t-56 49t-56.5 22.5q-32 0 -46.5 -18t-14.5 -64l-21 -20h-102z" />
<glyph unicode="&#x2000;" horiz-adv-x="921" />
<glyph unicode="&#x2001;" horiz-adv-x="1843" />
<glyph unicode="&#x2002;" horiz-adv-x="921" />
<glyph unicode="&#x2003;" horiz-adv-x="1843" />
<glyph unicode="&#x2004;" horiz-adv-x="614" />
<glyph unicode="&#x2005;" horiz-adv-x="460" />
<glyph unicode="&#x2006;" horiz-adv-x="307" />
<glyph unicode="&#x2007;" horiz-adv-x="307" />
<glyph unicode="&#x2008;" horiz-adv-x="230" />
<glyph unicode="&#x2009;" horiz-adv-x="368" />
<glyph unicode="&#x200a;" horiz-adv-x="102" />
<glyph unicode="&#x2010;" horiz-adv-x="880" d="M123 430v205l20 20h594l21 -20v-205l-21 -20h-594z" />
<glyph unicode="&#x2011;" horiz-adv-x="880" d="M123 430v205l20 20h594l21 -20v-205l-21 -20h-594z" />
<glyph unicode="&#x2012;" horiz-adv-x="880" d="M123 430v205l20 20h594l21 -20v-205l-21 -20h-594z" />
<glyph unicode="&#x2013;" horiz-adv-x="1269" d="M123 430v205l20 20h983l21 -20v-205l-21 -20h-983z" />
<glyph unicode="&#x2014;" horiz-adv-x="2293" d="M123 430v205l20 20h2007l21 -20v-205l-21 -20h-2007z" />
<glyph unicode="&#x2018;" horiz-adv-x="655" d="M143 860v287l21 61l164 205l41 21h123v-41l-123 -205v-21l20 -20h62l20 -21v-266l-20 -20h-287z" />
<glyph unicode="&#x2019;" horiz-adv-x="655" d="M164 840v41l123 204v21l-21 20h-61l-21 21v266l21 21h287l20 -21v-287l-20 -61l-164 -205l-41 -20h-123z" />
<glyph unicode="&#x201a;" horiz-adv-x="655" d="M143 -246l123 205v21l-20 20h-62l-20 20v267l20 20h287l21 -20v-287l-21 -61l-164 -205l-41 -21h-123v41z" />
<glyph unicode="&#x201c;" d="M143 860v287l21 61l164 205l41 21h123v-41l-123 -205v-21l20 -20h62l20 -21v-266l-20 -20h-287zM635 860v287l20 61l164 205l41 21h123v-41l-123 -205v-21l21 -20h61l21 -21v-266l-21 -20h-287z" />
<glyph unicode="&#x201d;" d="M164 840v41l123 204v21l-21 20h-61l-21 21v266l21 21h287l20 -21v-287l-20 -61l-164 -205l-41 -20h-123zM655 840v41l123 204v21l-20 20h-62l-20 21v266l20 21h287l21 -21v-287l-21 -61l-164 -205l-41 -20h-123z" />
<glyph unicode="&#x201e;" d="M143 -246l123 205v21l-20 20h-62l-20 20v267l20 20h287l21 -20v-287l-21 -61l-164 -205l-41 -21h-123v41zM635 -246l123 205v21l-21 20h-61l-21 20v267l21 20h287l20 -20v-287l-20 -61l-164 -205l-41 -21h-123v41z" />
<glyph unicode="&#x2022;" horiz-adv-x="962" d="M164 512v20l307 308h21l307 -308v-20l-307 -307h-21z" />
<glyph unicode="&#x2026;" horiz-adv-x="1720" d="M164 20v267l20 20h287l21 -20v-267l-21 -20h-287zM696 20v267l21 20h287l20 -20v-267l-20 -20h-287zM1229 20v267l20 20h287l20 -20v-267l-20 -20h-287z" />
<glyph unicode="&#x202f;" horiz-adv-x="368" />
<glyph unicode="&#x2039;" horiz-adv-x="983" d="M164 451v122l20 41l328 328l41 21h246l20 -21v-82l-348 -328v-40l348 -328v-82l-20 -21h-246l-41 21l-328 328z" />
<glyph unicode="&#x203a;" horiz-adv-x="983" d="M164 82v82l348 328v40l-348 328v82l20 21h246l41 -21l328 -328l20 -41v-122l-20 -41l-328 -328l-41 -21h-246z" />
<glyph unicode="&#x205f;" horiz-adv-x="460" />
<glyph unicode="&#x20ac;" horiz-adv-x="1495" d="M41 451v163l20 21h144l20 20v82l-20 21h-144l-20 20v164l20 21h164l21 20q47 233 197 352t397 119q250 0 396.5 -107.5t176.5 -322.5l-20 -20h-246l-21 20q-41 184 -286 184q-135 0 -202 -56t-85 -169l20 -20h390l20 -21v-164l-20 -20h-431l-20 -21v-82l20 -20h349 l20 -21v-163l-20 -21h-287l-21 -20q17 -91 86 -138t181 -47q251 0 286 185l21 20h246l20 -20q-17 -205 -164.5 -317.5t-408.5 -112.5q-232 0 -372 106t-202 324l-20 20h-185z" />
<glyph unicode="&#x2122;" horiz-adv-x="1781" d="M41 1290v123l20 21h635l21 -21v-123l-21 -20h-204l-21 -21v-532l-20 -21h-144l-20 21v532l-21 21h-205zM819 717v696l21 21h184l20 -21l185 -471h20l185 471l20 21h184l21 -21v-696l-21 -21h-143l-20 21v307h-21l-123 -307l-20 -21h-144l-20 21l-123 307h-20v-307 l-21 -21h-143z" />
<glyph unicode="&#xe000;" horiz-adv-x="1024" d="M0 0v1024h1024v-1024h-1024z" />
<glyph unicode="&#xfb01;" horiz-adv-x="1351" d="M61 799v205l21 20h143l21 20v82q0 81 28 142t77.5 96.5t110 52.5t132.5 17h164l20 -21v-205l-20 -20h-164q-62 0 -62 -62v-82l21 -20h655l21 -20v-984l-21 -20h-245l-21 20v738l-20 20h-369l-21 -20v-738l-20 -20h-246l-20 20v738l-21 20h-143zM942 1208v205l21 21h245 l21 -21v-205l-21 -20h-245z" />
<glyph unicode="&#xfb02;" horiz-adv-x="1351" d="M61 799v205l21 20h143l21 20v82q0 81 28 142t77.5 96.5t110 52.5t132.5 17h164l20 -21v-205l-20 -20h-164q-62 0 -62 -62v-82l21 -20h369l20 20v369l21 21h245l21 -21v-1393l-21 -20h-245l-21 20v738l-20 20h-369l-21 -20v-738l-20 -20h-246l-20 20v738l-21 20h-143z" />
<glyph unicode="&#xfb03;" horiz-adv-x="2048" d="M61 799v205l21 20h143l21 20v82q0 81 28 142t77.5 96.5t110 52.5t132.5 17h164l20 -21v-205l-20 -20h-164q-62 0 -62 -62v-82l21 -20h369l20 20v82q0 81 28 142t77.5 96.5t110 52.5t132.5 17h164l21 -21v-205l-21 -20h-164q-61 0 -61 -62v-82l20 -20h656l20 -20v-984 l-20 -20h-246l-21 20v738l-20 20h-369l-20 -20v-738l-21 -20h-245l-21 20v738l-20 20h-369l-21 -20v-738l-20 -20h-246l-20 20v738l-21 20h-143zM1638 1208v205l21 21h246l20 -21v-205l-20 -20h-246z" />
<glyph unicode="&#xfb04;" horiz-adv-x="2048" d="M61 799v205l21 20h143l21 20v82q0 81 28 142t77.5 96.5t110 52.5t132.5 17h164l20 -21v-205l-20 -20h-164q-62 0 -62 -62v-82l21 -20h369l20 20v82q0 81 28 142t77.5 96.5t110 52.5t132.5 17h164l21 -21v-205l-21 -20h-164q-61 0 -61 -62v-82l20 -20h369l20 20v369l21 21 h246l20 -21v-1393l-20 -20h-246l-21 20v738l-20 20h-369l-20 -20v-738l-21 -20h-245l-21 20v738l-20 20h-369l-21 -20v-738l-20 -20h-246l-20 20v738l-21 20h-143z" />
</font>
</defs>
</svg>
