<?xml version="1.0" standalone="no"?>
<!DOCTYPE svg PUBLIC "-//W3C//DTD SVG 1.1//EN" "http://www.w3.org/Graphics/SVG/1.1/DTD/svg11.dtd" >
<svg xmlns="http://www.w3.org/2000/svg">
<metadata></metadata>
<defs>
<font id="cposlight" horiz-adv-x="1187" >
<font-face units-per-em="2048" ascent="1536" descent="-512" />
<missing-glyph horiz-adv-x="532" />
<glyph horiz-adv-x="0" />
<glyph horiz-adv-x="0" />
<glyph horiz-adv-x="682" />
<glyph unicode="&#xd;" horiz-adv-x="0" />
<glyph unicode=" "  horiz-adv-x="532" />
<glyph unicode="&#x09;" horiz-adv-x="532" />
<glyph unicode="&#xa0;" horiz-adv-x="532" />
<glyph unicode="!" horiz-adv-x="655" d="M246 20v164l20 21h123l21 -21v-164l-21 -20h-123zM266 860v553l21 21h82l20 -21v-553l-20 -471l-21 -20h-41l-20 20z" />
<glyph unicode="&#x22;" horiz-adv-x="778" d="M164 819v594l20 21h82l21 -21v-594l-21 -20h-82zM492 819v594l20 21h82l20 -21v-594l-20 -20h-82z" />
<glyph unicode="#" horiz-adv-x="1249" d="M61 430v62l21 20h184l21 20l102 369l-20 21h-144l-20 20v62l20 20h185l20 20l102 369l21 21h61l21 -21v-61l-82 -308l20 -20h287l21 20l102 369l21 21h61l20 -21v-61l-81 -308l20 -20h143l21 -20v-62l-21 -20h-184l-20 -21l-103 -369l21 -20h143l20 -20v-62l-20 -20h-184 l-21 -21l-102 -369l-21 -20h-61l-21 20v62l82 307l-20 21h-287l-20 -21l-103 -369l-20 -20h-62l-20 20v62l82 307l-21 21h-143zM410 532l20 -20h287l20 20l103 369l-21 21h-287l-20 -21z" />
<glyph unicode="$" horiz-adv-x="1208" d="M82 430l20 21h82l21 -21q0 -158 83 -244.5t265 -103.5l20 20v574l-20 20q-107 33 -181.5 68t-133 83t-87 112t-28.5 147q0 46 11 88.5t40.5 88t76 80t124.5 59.5t178 32l20 21v122l21 21h61l21 -21v-122l20 -21q80 -9 148 -36.5t123 -76t86.5 -124.5t31.5 -173l-20 -20 h-82l-20 20q0 137 -70 213.5t-197 94.5l-20 -21v-532l20 -21q116 -33 189.5 -64.5t131.5 -78.5t83.5 -111.5t25.5 -154.5q0 -160 -110.5 -266t-319.5 -123l-20 -21v-123l-21 -20h-61l-21 20v123l-20 21q-220 18 -345.5 134.5t-125.5 315.5zM246 1106q0 -110 69.5 -176.5 t237.5 -110.5l20 21v491l-20 21q-150 0 -228.5 -66.5t-78.5 -179.5zM676 102l20 -20q80 8 141.5 36.5t96.5 69.5t52.5 87t17.5 94q0 67 -23.5 116t-70.5 81.5t-95 51t-119 37.5l-20 -20v-533z" />
<glyph unicode="%" horiz-adv-x="1761" d="M82 1065q0 177 82.5 283t245.5 106q162 0 244.5 -106t82.5 -283t-82.5 -283t-244.5 -106q-163 0 -245.5 106t-82.5 283zM205 1065q0 -129 51.5 -208t153.5 -79q101 0 152.5 78.5t51.5 208.5t-51.5 208.5t-152.5 78.5q-102 0 -153.5 -79t-51.5 -208zM410 20v62l839 1331 l21 21h61l21 -21v-61l-840 -1332l-20 -20h-62zM1024 369q0 177 82.5 283t245.5 106q162 0 244.5 -106t82.5 -283t-82.5 -283t-244.5 -106q-163 0 -245.5 106t-82.5 283zM1147 369q0 -129 51.5 -208t153.5 -79q101 0 152.5 78.5t51.5 208.5q0 129 -51 207.5t-153 78.5 t-153.5 -78.5t-51.5 -207.5z" />
<glyph unicode="&#x26;" horiz-adv-x="1474" d="M164 410q0 107 44 192t109.5 135t153.5 82v21q-143 143 -143 307q0 57 17 109t53.5 97.5t102.5 73t154 27.5q80 0 141.5 -27t96.5 -71t52.5 -92t17.5 -97q0 -65 -17 -119t-40.5 -89.5t-63.5 -68.5t-70 -50.5t-76 -40.5v-21l410 -409h20q62 124 62 409l20 21h82l21 -21 q0 -316 -103 -491v-21l185 -184v-62l-21 -20h-41l-41 20l-143 144h-21q-87 -87 -203 -135.5t-288 -48.5q-213 0 -342 121t-129 309zM287 410q0 -143 92 -235.5t256 -92.5q280 0 409 164v20l-471 471h-20q-140 -47 -203 -125t-63 -202zM451 1147q0 -74 31.5 -130t111.5 -136 h41q67 33 108.5 64.5t69 82.5t27.5 119q0 89 -43 147t-142 58q-204 0 -204 -205z" />
<glyph unicode="'" horiz-adv-x="450" d="M164 819v594l20 21h82l21 -21v-594l-21 -20h-82z" />
<glyph unicode="(" horiz-adv-x="798" d="M164 512q0 89 0.5 144.5t5.5 119.5t8 99t17.5 84t24 73.5t38 67.5t48.5 66.5t65.5 71.5t80 80.5t101.5 94.5l41 21h20l21 -21v-61q-164 -155 -213 -213q-82 -98 -109 -208q-25 -104 -26 -367v-52q0 -106 0.5 -169.5t8.5 -133.5t14 -106t29 -87.5t41 -78.5t63 -77.5 t82 -85t110 -102.5v-61l-21 -21h-20l-41 21q-67 62 -101.5 94.5t-80 80.5t-65.5 71.5t-48.5 66.5t-38 67.5t-24 73.5t-17.5 84t-8 99t-5.5 119.5t-0.5 144.5z" />
<glyph unicode=")" horiz-adv-x="798" d="M164 -328q73 68 110 102.5t82 85t63 77.5t41 78.5t29 87.5t14 106t8.5 133.5t0.5 169.5q0 209 -4.5 302t-50 193.5t-94.5 151t-192 186.5l-7 7v61l20 21h21l41 -21q183 -175 239 -240q90 -107 120 -219q28 -108 30 -361v-81q0 -89 -0.5 -144.5t-5.5 -119.5t-8 -99 t-17.5 -84t-24 -73.5t-38 -67.5t-48.5 -66.5t-65.5 -71.5t-80 -80.5t-101.5 -94.5l-41 -21h-21l-20 21v61z" />
<glyph unicode="*" horiz-adv-x="1208" d="M164 983v21l20 20h328v20l-225 226v20l20 21h21l225 -226h20v328l21 21h20l21 -21v-328h20l226 226h20l21 -21v-20l-226 -226v-20h328l20 -20v-21l-20 -20h-328v-21l226 -225v-21l-21 -20h-20l-226 225h-20v-328l-21 -20h-20l-21 20v328h-20l-225 -225h-21l-20 20v21 l225 225v21h-328z" />
<glyph unicode="+" horiz-adv-x="1208" d="M123 492v61l20 20h389l21 21v389l20 21h62l20 -21v-389l21 -21h389l20 -20v-61l-20 -21h-389l-21 -20v-390l-20 -20h-62l-20 20v390l-21 20h-389z" />
<glyph unicode="," horiz-adv-x="491" d="M143 -164l82 123v21l-20 20h-21l-20 20v164l20 21h123l21 -21v-184l-21 -61l-82 -103l-41 -20h-41v20z" />
<glyph unicode="-" horiz-adv-x="798" d="M123 492v61l20 20h512l21 -20v-61l-21 -21h-512z" />
<glyph unicode="." horiz-adv-x="491" d="M164 20v164l20 21h123l21 -21v-164l-21 -20h-123z" />
<glyph unicode="/" horiz-adv-x="1044" d="M82 20v62l778 1331l21 21h61l21 -21v-61l-779 -1332l-20 -20h-62z" />
<glyph unicode="0" horiz-adv-x="1146" d="M82 717q0 196 33.5 339t98 229.5t153.5 127.5t206 41q239 0 365.5 -176t126.5 -561t-126.5 -561t-365.5 -176q-117 0 -206 41t-153.5 127.5t-98 229.5t-33.5 339zM205 717q0 -173 25.5 -297t74.5 -197.5t115 -107t153 -33.5t153 33.5t115.5 106.5t75 197.5t25.5 297.5 t-25.5 297.5t-75 197.5t-115.5 106.5t-153 33.5t-153 -33.5t-115 -107t-74.5 -197.5t-25.5 -297z" />
<glyph unicode="1" horiz-adv-x="716" d="M82 1004v81l328 328l41 21h81l21 -21v-1393l-21 -20h-81l-21 20v1250h-20l-287 -287h-21z" />
<glyph unicode="2" horiz-adv-x="1085" d="M82 20v82l20 41l410 369q54 49 82.5 76t69.5 69t62 70t47 68.5t38 76t20.5 80t8.5 92.5q0 56 -17.5 108.5t-52.5 98.5t-96.5 73.5t-141.5 27.5q-77 0 -136.5 -21t-94.5 -53t-57.5 -77t-30.5 -87.5t-8 -89.5l-21 -20h-82l-20 20q0 193 115 311.5t335 118.5 q105 0 188 -32.5t135.5 -89t80 -130t27.5 -158.5t-18.5 -155.5t-60 -137t-94 -125t-135.5 -134.5l-409 -369v-21h737l21 -20v-62l-21 -20h-881z" />
<glyph unicode="3" horiz-adv-x="1085" d="M61 389l21 21h82l20 -21q0 -56 20.5 -108.5t60.5 -98t109.5 -73t157.5 -27.5q71 0 130.5 22.5t99 60.5t67 88.5t40 105.5t12.5 112q0 160 -88 244t-220 84q-95 0 -165 -41q-22 -12 -60 -41h-20l-21 20v82l492 492v20h-656l-20 21v61l20 21h779l20 -21v-82l-20 -41 l-369 -368v-21q4 2 20 2h25q72 0 140 -23.5t129.5 -72t99 -135.5t37.5 -201q0 -217 -130 -354t-342 -137q-216 0 -343.5 112t-127.5 297z" />
<glyph unicode="4" horiz-adv-x="1085" d="M41 430v82l20 41l697 860l41 21h102l21 -21v-1393l-21 -20h-82l-20 20v369l-21 21h-717zM184 512h594l21 20v738h-21l-594 -738v-20z" />
<glyph unicode="5" horiz-adv-x="1146" d="M123 389l20 21h82l21 -21q43 -307 327 -307q172 0 260.5 104t88.5 306q0 177 -82.5 283t-245.5 106q-117 0 -195.5 -51t-111.5 -134l-41 -20h-82l-21 20l41 717l21 21h758l20 -21v-61l-20 -21h-656l-20 -20l-21 -451h21q123 123 307 123q205 0 327.5 -123.5t122.5 -347.5 q0 -264 -119 -398t-352 -134q-111 0 -195 32t-136 89.5t-81 129t-38 158.5z" />
<glyph unicode="6" horiz-adv-x="1126" d="M102 532v226q0 72 4.5 135.5t18 136t35.5 131.5t60 115t88.5 94t123.5 61t162 23q103 0 183.5 -28t130.5 -77.5t78.5 -110t37.5 -132.5l-20 -21h-82l-21 21q-40 246 -307 246q-60 0 -110 -15t-85.5 -38t-64 -60.5t-46.5 -71.5t-30.5 -83t-19 -83.5t-9.5 -84.5t-3.5 -74.5 t-0.5 -63.5h21q28 43 82 82q110 82 266 82q86 0 165 -28t143.5 -82t103 -142t38.5 -198q0 -240 -132 -376t-339 -136q-95 0 -178 32.5t-149.5 97.5t-105 173.5t-38.5 248.5zM225 471q0 -169 97.5 -279t250.5 -110t251 110t98 279q0 172 -87.5 270.5t-240.5 98.5 q-161 0 -265 -96.5t-104 -272.5z" />
<glyph unicode="7" horiz-adv-x="1003" d="M82 1352v61l20 21h820l20 -21v-102l-614 -1291l-21 -20h-41l-20 20v82l573 1209v20h-717z" />
<glyph unicode="8" horiz-adv-x="1105" d="M82 389q0 87 26 157.5t67 112.5t79 65.5t74 33.5v20q-26 10 -57.5 32.5t-66.5 59.5t-58 93.5t-23 121.5q0 161 111.5 265t318.5 104t318.5 -104t111.5 -265q0 -65 -23 -121.5t-58 -93.5t-66.5 -59.5t-57.5 -32.5v-20q36 -10 74 -33.5t79 -65.5t67 -112.5t26 -157.5 q0 -79 -28 -150.5t-83.5 -130.5t-148.5 -93.5t-211 -34.5t-211 34.5t-148.5 93.5t-83.5 130.5t-28 150.5zM205 389q0 -56 20.5 -108.5t60.5 -98t109.5 -73t157.5 -27.5t157.5 27.5t109.5 73t60.5 98t20.5 108.5q0 162 -94 245t-254 83t-254 -83t-94 -245zM246 1085 q0 -33 8 -67t29.5 -70.5t54.5 -64.5t89 -46t126 -18t126 18t89 46t54.5 64.5t29.5 70.5t8 67q0 116 -75 191.5t-232 75.5t-232 -75.5t-75 -191.5z" />
<glyph unicode="9" horiz-adv-x="1126" d="M82 983q0 211 133.5 341t337.5 130q221 0 346 -129.5t125 -382.5v-246q0 -133 -15 -240.5t-50 -197.5t-89 -150.5t-134 -94t-183 -33.5t-181 30.5t-124 83t-71 110t-34 124.5l21 20h82l20 -20q10 -52 26.5 -91.5t47.5 -77t85 -57.5t128 -20q348 0 348 594h-20 q-120 -164 -349 -164q-199 0 -324.5 134t-125.5 337zM205 983q0 -160 92.5 -264.5t255.5 -104.5q155 0 251.5 101t96.5 268q0 165 -86.5 267t-261.5 102q-155 0 -251.5 -101t-96.5 -268z" />
<glyph unicode=":" horiz-adv-x="491" d="M164 20v164l20 21h123l21 -21v-164l-21 -20h-123zM164 840v164l20 20h123l21 -20v-164l-21 -21h-123z" />
<glyph unicode=";" horiz-adv-x="491" d="M143 -164l82 123v21l-20 20h-21l-20 20v164l20 21h123l21 -21v-184l-21 -61l-82 -103l-41 -20h-41v20zM164 840v164l20 20h123l21 -20v-164l-21 -21h-123z" />
<glyph unicode="&#x3c;" horiz-adv-x="1126" d="M143 492v40l21 41l778 451h62l20 -20v-41l-20 -41l-697 -390v-40l697 -390l20 -41v-41l-20 -20h-62l-778 451z" />
<glyph unicode="=" horiz-adv-x="1228" d="M164 307v62l20 20h860l21 -20v-62l-21 -20h-860zM164 676v61l20 21h860l21 -21v-61l-21 -21h-860z" />
<glyph unicode="&#x3e;" d="M164 20v41l20 41l697 390v40l-697 390l-20 41v41l20 20h62l778 -451l20 -41v-40l-20 -41l-778 -451h-62z" />
<glyph unicode="?" horiz-adv-x="1146" d="M164 1024q0 205 104.5 317.5t304.5 112.5q190 0 300 -94.5t110 -274.5q0 -74 -16.5 -134t-52.5 -110.5t-68.5 -84t-87.5 -80.5q-93 -77 -118.5 -131.5t-25.5 -175.5l-20 -21h-82l-20 21q0 136 35 213.5t128 154.5q55 48 84.5 77t61.5 72t45.5 91t13.5 108q0 115 -71 191 t-216 76q-143 0 -214.5 -79.5t-71.5 -248.5l-21 -20h-82zM471 20v164l21 21h122l21 -21v-164l-21 -20h-122z" />
<glyph unicode="@" horiz-adv-x="1843" d="M123 512q0 175 59 326.5t163.5 260t253.5 170.5t323 62q232 0 414.5 -106t283 -293t100.5 -420q0 -245 -75.5 -358t-231.5 -113q-88 0 -150.5 39t-95.5 104h-20q-37 -56 -93.5 -89.5t-152.5 -33.5q-162 0 -265.5 116t-103.5 335t103.5 335t265.5 116q93 0 174 -52 q22 -13 51 -51h21l20 62l21 20h61l21 -20v-615q0 -81 33.5 -122.5t109.5 -41.5q184 0 184 369q0 194 -82 356.5t-238 261.5t-355 99q-150 0 -278 -57.5t-214.5 -155.5t-135 -228.5t-48.5 -275.5t48.5 -275.5t135 -228.5t214.5 -155.5t278 -57.5q207 0 348 103h20l21 -21v-61 q-60 -60 -166.5 -91.5t-222.5 -31.5q-174 0 -323 62t-253.5 170.5t-163.5 260t-59 326.5zM655 512q0 -168 66.5 -258t179.5 -90q112 0 179 86t67 262t-67 262t-179 86q-113 0 -179.5 -90t-66.5 -258z" />
<glyph unicode="A" horiz-adv-x="1249" d="M41 20v62l512 1331l20 21h103l20 -21l512 -1331v-62l-20 -20h-62l-20 20l-143 369l-41 21h-594l-41 -21l-144 -369l-20 -20h-62zM348 532l21 -20h512l20 20l-266 717h-21z" />
<glyph unicode="B" horiz-adv-x="1269" d="M164 20v1393l20 21h533q97 0 171.5 -18t134.5 -58.5t92 -114.5t32 -178q0 -216 -184 -307v-21q100 -33 162.5 -115.5t62.5 -211.5q0 -90 -23.5 -160.5t-64 -117t-98.5 -76.5t-123.5 -43t-141.5 -13h-553zM287 123l20 -21h430q165 0 246.5 81.5t81.5 226.5 q0 139 -86 212.5t-242 73.5h-430l-20 -20v-553zM287 819l20 -20h430q139 0 213 70.5t74 195.5q0 142 -69.5 204t-237.5 62h-410l-20 -20v-492z" />
<glyph unicode="C" horiz-adv-x="1372" d="M82 717q0 179 53 322t144 232t208 136t250 47q147 0 263 -47.5t192.5 -145t97.5 -237.5l-20 -20h-82l-21 20q-31 157 -139.5 242.5t-290.5 85.5q-237 0 -384.5 -167.5t-147.5 -467.5t147.5 -467.5t384.5 -167.5q368 0 430 348l21 21h82l20 -21q-31 -221 -180 -335.5 t-373 -114.5q-133 0 -250 47t-208 136t-144 232t-53 322z" />
<glyph unicode="D" horiz-adv-x="1331" d="M164 20v1393l20 21h389q189 0 321 -48t209.5 -143.5t111.5 -223.5t34 -302q0 -176 -34 -304t-111.5 -223t-209.5 -142.5t-321 -47.5h-389zM287 123l20 -21h266q153 0 259.5 37.5t171 116t93.5 191t29 270.5q0 121 -16 213.5t-54.5 170t-101 127t-158 76.5t-223.5 27h-266 l-20 -20v-1188z" />
<glyph unicode="E" d="M164 20v1393l20 21h881l20 -21v-61l-20 -21h-758l-20 -20v-512l20 -21h717l20 -20v-62l-20 -20h-717l-20 -21v-532l20 -21h758l20 -20v-62l-20 -20h-881z" />
<glyph unicode="F" horiz-adv-x="1126" d="M164 20v1393l20 21h840l20 -21v-61l-20 -21h-717l-20 -20v-533l20 -20h676l21 -21v-61l-21 -21h-676l-20 -20v-615l-21 -20h-82z" />
<glyph unicode="G" horiz-adv-x="1433" d="M82 717q0 179 53 321.5t146 232t214.5 136.5t262.5 47q102 0 188 -23.5t146.5 -63.5t106.5 -95.5t72.5 -116.5t39.5 -131l-21 -20h-82l-20 20q-77 328 -430 328q-256 0 -404.5 -176.5t-148.5 -458.5t148.5 -458.5t404.5 -176.5q107 0 186 28.5t125 74t73.5 115t36.5 138 t9 156.5l-21 20h-471l-20 21v61l20 21h594l21 -21v-676l-21 -20h-41l-20 20l-21 164h-20q-64 -96 -172.5 -150t-257.5 -54q-141 0 -262.5 47t-214.5 136.5t-146 232t-53 321.5z" />
<glyph unicode="H" horiz-adv-x="1413" d="M164 20v1393l20 21h82l21 -21v-614l20 -21h799l20 21v614l21 21h82l20 -21v-1393l-20 -20h-82l-21 20v635l-20 21h-799l-20 -21v-635l-21 -20h-82z" />
<glyph unicode="I" horiz-adv-x="450" d="M164 20v1393l20 21h82l21 -21v-1393l-21 -20h-82z" />
<glyph unicode="J" horiz-adv-x="1003" d="M41 348v21l20 20h82l21 -20v-21q0 -114 67 -190t199 -76q287 0 287 307v1024l20 21h82l21 -21v-1024q0 -81 -21.5 -151t-67.5 -129.5t-128 -94t-193 -34.5q-88 0 -158 25t-112 63.5t-70 89.5t-38.5 97.5t-10.5 92.5z" />
<glyph unicode="K" horiz-adv-x="1249" d="M164 20v1393l20 21h82l21 -21v-758h20l758 758l41 21h41l20 -21v-61l-532 -533v-20l573 -717v-62l-20 -20h-41l-41 20l-553 697h-21l-225 -225l-20 -41v-431l-21 -20h-82z" />
<glyph unicode="L" horiz-adv-x="1064" d="M164 20v1393l20 21h82l21 -21v-1290l20 -21h717l20 -20v-62l-20 -20h-840z" />
<glyph unicode="M" horiz-adv-x="1781" d="M164 20v1393l20 21h144l20 -21l533 -1249h20l533 1249l20 21h143l21 -21v-1393l-21 -20h-81l-21 20v1188h-20l-512 -1188l-21 -20h-102l-21 20l-512 1188h-20v-1188l-21 -20h-82z" />
<glyph unicode="N" horiz-adv-x="1454" d="M164 20v1393l20 21h103l41 -21l819 -1208h20v1208l21 21h82l20 -21v-1393l-20 -20h-103l-41 20l-819 1209h-20v-1209l-21 -20h-82z" />
<glyph unicode="O" horiz-adv-x="1474" d="M82 717q0 150 34.5 273.5t95 208.5t144 143t179 85t202.5 27t202.5 -27t179.5 -85t144.5 -143t95 -208.5t34.5 -273.5t-34.5 -273.5t-95 -208.5t-144.5 -143t-179.5 -85t-202.5 -27t-202.5 27t-179 85t-144 143t-95 208.5t-34.5 273.5zM205 717q0 -311 146 -473t386 -162 t386.5 162t146.5 473t-146.5 473t-386.5 162t-386 -162t-146 -473z" />
<glyph unicode="P" horiz-adv-x="1269" d="M164 20v1393l20 21h594q233 0 342 -94t109 -296t-108.5 -295.5t-342.5 -93.5h-471l-20 -20v-615l-21 -20h-82zM287 778l20 -20h471q164 0 246 63.5t82 222.5q0 158 -79 222.5t-228 64.5h-492l-20 -20v-533z" />
<glyph unicode="Q" horiz-adv-x="1474" d="M82 717q0 150 34.5 273.5t95 208.5t144 143t179 85t202.5 27t202.5 -27t179.5 -85t144.5 -143t95 -208.5t34.5 -273.5q0 -165 -39.5 -297.5t-104.5 -214.5v-21l103 -102v-62l-21 -20h-61l-103 102h-20q-69 -53 -174 -87.5t-236 -34.5q-107 0 -202.5 27t-179 85t-144 143 t-95 208.5t-34.5 273.5zM205 717q0 -311 146 -473t386 -162q195 0 328 102v21l-205 205l-41 20h-225l-21 21v61l21 20h287l41 -20l225 -225h20q48 62 75.5 176t27.5 254q0 311 -146.5 473t-386.5 162t-386 -162t-146 -473z" />
<glyph unicode="R" horiz-adv-x="1310" d="M164 20v1393l20 21h594q233 0 342 -94t109 -296q0 -94 -27.5 -166t-68.5 -113t-96 -67t-102 -34.5t-95 -8.5v-20l348 -553v-62l-21 -20h-41l-41 20l-389 615l-41 20h-348l-20 -20v-615l-21 -20h-82zM287 778l20 -20h471q164 0 246 63.5t82 222.5q0 158 -79 222.5 t-228 64.5h-492l-20 -20v-533z" />
<glyph unicode="S" horiz-adv-x="1208" d="M82 430l20 21h82l21 -21q0 -348 430 -348q178 0 273.5 79.5t95.5 207.5q0 56 -16.5 98t-46 73.5t-85 59t-119.5 48.5t-164 48q-238 64 -344 155.5t-106 254.5q0 47 11 91.5t43 92.5t82.5 83t136.5 58t198 23q105 0 190.5 -21.5t154.5 -67.5t107.5 -128t38.5 -193l-20 -20 h-82l-20 20q0 308 -369 308q-70 0 -125.5 -9.5t-92.5 -27t-63.5 -40t-40.5 -51.5t-20 -57t-6 -61q0 -56 16 -98t46 -74t85 -59t119 -48.5t164 -48.5q98 -26 165 -50.5t124.5 -58t90.5 -75t51.5 -97t18.5 -128.5q0 -60 -13.5 -112.5t-49 -104.5t-91.5 -89t-147.5 -60 t-210.5 -23q-248 0 -390 118t-142 332z" />
<glyph unicode="T" d="M41 1352v61l20 21h1065l21 -21v-61l-21 -21h-450l-21 -20v-1291l-20 -20h-82l-21 20v1291l-20 20h-451z" />
<glyph unicode="U" horiz-adv-x="1392" d="M164 512v901l20 21h82l21 -21v-901q0 -199 111.5 -314.5t297.5 -115.5q200 0 305 112.5t105 317.5v901l20 21h82l21 -21v-901q0 -246 -143.5 -389t-389.5 -143t-389 143t-143 389z" />
<glyph unicode="V" horiz-adv-x="1290" d="M61 1352v61l21 21h61l21 -21l471 -1249h20l471 1249l21 21h61l21 -21v-61l-512 -1332l-21 -20h-102l-21 20z" />
<glyph unicode="W" horiz-adv-x="1863" d="M82 1352v61l20 21h62l20 -21l328 -1188h20l328 1188l21 21h102l21 -21l327 -1188h21l327 1188l21 21h61l21 -21v-61l-369 -1332l-20 -20h-103l-20 20l-328 1209h-20l-328 -1209l-21 -20h-102l-20 20z" />
<glyph unicode="X" horiz-adv-x="1290" d="M61 20v62l512 655v21l-471 594v61l21 21h41l41 -21l430 -553h20l430 553l41 21h41l21 -21v-61l-471 -594v-21l512 -655v-62l-21 -20h-41l-41 20l-471 615h-20l-471 -615l-41 -20h-41z" />
<glyph unicode="Y" horiz-adv-x="1146" d="M61 1352v61l21 21h41l41 -21l389 -676h41l389 676l41 21h41l20 -21v-61l-450 -758v-574l-21 -20h-82l-20 20v574z" />
<glyph unicode="Z" d="M102 20v82l21 41l778 1168v20h-758l-20 21v61l20 21h881l20 -21v-82l-20 -41l-778 -1167v-21h819l20 -20v-62l-20 -20h-942z" />
<glyph unicode="[" horiz-adv-x="675" d="M164 -389v1802l20 21h308l20 -21v-61l-20 -21h-185l-20 -20v-1598l20 -20h185l20 -21v-61l-20 -21h-308z" />
<glyph unicode="\" horiz-adv-x="1044" d="M82 1352v61l20 21h62l20 -21l779 -1331v-62l-21 -20h-61l-21 20z" />
<glyph unicode="]" horiz-adv-x="675" d="M164 -328l20 21h185l20 20v1598l-20 20h-185l-20 21v61l20 21h308l20 -21v-1802l-20 -21h-308l-20 21v61z" />
<glyph unicode="^" d="M143 492v61l389 860l21 21h82l20 -21l389 -860v-61l-20 -21h-41l-41 21l-328 737h-41l-327 -737l-41 -21h-41z" />
<glyph unicode="_" d="M82 -20l20 20h983l21 -20v-62l-21 -20h-983l-20 20v62z" />
<glyph unicode="`" horiz-adv-x="1024" d="M246 1372v41l20 21h62l41 -21l184 -205v-41l-21 -20h-20l-41 20z" />
<glyph unicode="a" horiz-adv-x="983" d="M61 287q0 166 112 246.5t319 80.5q89 0 167 -10q29 -6 78 -10l21 20v62q0 141 -58.5 203.5t-207.5 62.5q-143 0 -205 -58t-62 -147l-20 -20h-82l-21 20q0 132 100 219.5t290 87.5q113 0 190 -25t120 -75.5t61 -114.5t18 -153v-656l-21 -20h-61l-21 20l-20 103h-21 q-16 -22 -31.5 -38.5t-43.5 -37.5t-60.5 -34.5t-82.5 -23t-109 -9.5q-169 0 -259 81.5t-90 225.5zM184 287q0 -99 56.5 -152t189.5 -53q81 0 145.5 27.5t103.5 72.5t59 98.5t20 108.5v82l-21 21l-32 4l-35 6q-68 10 -158 10q-177 0 -252.5 -57t-75.5 -168z" />
<glyph unicode="b" horiz-adv-x="1085" d="M123 20v1393l20 21h82l21 -21v-532h20q33 69 116 116t212 47q208 0 319 -146.5t111 -385.5t-111 -385.5t-319 -146.5q-129 0 -212 47t-116 116h-20l-21 -123l-20 -20h-62zM246 512q0 -213 85 -321.5t242 -108.5t242.5 108.5t85.5 321.5t-85.5 321.5t-242.5 108.5 t-242 -108.5t-85 -321.5z" />
<glyph unicode="c" horiz-adv-x="1024" d="M61 512q0 135 35.5 238.5t100 166.5t149 95t186.5 32q182 0 297.5 -96t133.5 -252l-21 -20h-82l-20 20q-9 50 -29 91t-55 77.5t-92.5 57t-131.5 20.5q-159 0 -253.5 -110.5t-94.5 -319.5t94.5 -319.5t253.5 -110.5q74 0 131 20.5t92 57t55.5 78t29.5 90.5l20 20h82 l21 -20q-18 -156 -133.5 -252t-297.5 -96q-102 0 -186.5 32t-149 95t-100 166.5t-35.5 238.5z" />
<glyph unicode="d" horiz-adv-x="1085" d="M61 512q0 156 47 274.5t145.5 188t238.5 69.5q127 0 209.5 -47t117.5 -116h21v532l20 21h82l21 -21v-1393l-21 -20h-61l-21 20l-20 123h-21q-35 -69 -117.5 -116t-209.5 -47q-140 0 -238.5 69.5t-145.5 188t-47 274.5zM184 512q0 -213 85.5 -321.5t242.5 -108.5 t242.5 108.5t85.5 321.5t-85.5 321.5t-242.5 108.5t-242.5 -108.5t-85.5 -321.5z" />
<glyph unicode="e" horiz-adv-x="1024" d="M61 512v41q0 220 120 355.5t331 135.5t331 -135.5t120 -355.5v-61l-21 -21h-737l-21 -20q0 -40 10 -86t36 -97t64 -91.5t100 -67.5t138 -27q219 0 287 205l21 20h82l20 -20q-6 -40 -22.5 -79.5t-49 -81.5t-76.5 -73.5t-112 -52t-150 -20.5q-119 0 -211 42.5t-148 116.5 t-84 168.5t-28 204.5zM184 594l21 -21h614l21 21q0 45 -10 91t-35 93t-61 83t-93.5 58.5t-128.5 22.5t-128.5 -22.5t-93.5 -58.5t-61 -83t-35 -93t-10 -91z" />
<glyph unicode="f" horiz-adv-x="716" d="M61 942v62l21 20h164l20 20v82q0 108 66.5 167t179.5 59h143l21 -21v-61l-21 -21h-143q-123 0 -123 -123v-82l21 -20h225l20 -20v-62l-20 -20h-225l-21 -21v-881l-20 -20h-82l-21 20v881l-20 21h-164z" />
<glyph unicode="g" horiz-adv-x="1085" d="M61 512q0 156 47 274.5t145.5 188t238.5 69.5q127 0 209.5 -47t117.5 -116h21l20 123l21 20h61l21 -20v-861q0 -573 -431 -573q-177 0 -276 79t-113 208l21 20h82l20 -20q13 -57 37.5 -95t82 -64t146.5 -26t151 35t95.5 101.5t47.5 147t14 187.5h-21q-35 -69 -117.5 -116 t-209.5 -47q-140 0 -238.5 69.5t-145.5 188t-47 274.5zM184 512q0 -213 85.5 -321.5t242.5 -108.5t242.5 108.5t85.5 321.5t-85.5 321.5t-242.5 108.5t-242.5 -108.5t-85.5 -321.5z" />
<glyph unicode="h" horiz-adv-x="1085" d="M123 20v1393l20 21h82l21 -21v-532h20q47 78 132.5 120.5t195.5 42.5q174 0 271.5 -104.5t97.5 -304.5v-615l-21 -20h-82l-20 20v615q0 151 -70.5 229t-196.5 78q-166 0 -246.5 -96.5t-80.5 -272.5v-553l-21 -20h-82z" />
<glyph unicode="i" horiz-adv-x="368" d="M123 20v984l20 20h82l21 -20v-984l-21 -20h-82zM123 1208v123l20 21h82l21 -21v-123l-21 -20h-82z" />
<glyph unicode="j" horiz-adv-x="368" d="M-102 -287l20 21h82q64 0 93.5 37t29.5 127v1106l20 20h82l21 -20v-1106q0 -134 -66 -200.5t-180 -66.5h-82l-20 21v61zM123 1208v123l20 21h82l21 -21v-123l-21 -20h-82z" />
<glyph unicode="k" horiz-adv-x="962" d="M123 20v1393l20 21h82l21 -21v-901h20l492 492l41 20h41l20 -20v-62l-348 -348v-21l389 -491v-62l-20 -20h-41l-41 20l-369 472h-20l-144 -144l-20 -41v-287l-21 -20h-82z" />
<glyph unicode="l" horiz-adv-x="368" d="M123 20v1393l20 21h82l21 -21v-1393l-21 -20h-82z" />
<glyph unicode="m" horiz-adv-x="1617" d="M123 20v984l20 20h62l20 -20l21 -103h20q32 64 106.5 103.5t180.5 39.5q205 0 287 -163h20q99 163 307 163q172 0 260.5 -88t88.5 -260v-676l-21 -20h-82l-20 20v676q0 246 -226 246q-286 0 -286 -307v-615l-21 -20h-82l-20 20v676q0 246 -226 246q-286 0 -286 -307v-615 l-21 -20h-82z" />
<glyph unicode="n" horiz-adv-x="1064" d="M123 20v984l20 20h62l20 -20l21 -123h20q47 78 132.5 120.5t195.5 42.5q174 0 271.5 -104.5t97.5 -304.5v-615l-21 -20h-82l-20 20v615q0 151 -70.5 229t-196.5 78q-166 0 -246.5 -96.5t-80.5 -272.5v-553l-21 -20h-82z" />
<glyph unicode="o" horiz-adv-x="1064" d="M61 512q0 254 131 393t340 139t340.5 -139t131.5 -393t-131.5 -393t-340.5 -139t-340 139t-131 393zM184 512q0 -198 96 -314t252 -116t252.5 116t96.5 314t-96.5 314t-252.5 116t-252 -116t-96 -314z" />
<glyph unicode="p" horiz-adv-x="1085" d="M123 -389v1393l20 20h62l20 -20l21 -123h20q33 69 116 116t212 47q208 0 319 -146.5t111 -385.5t-111 -385.5t-319 -146.5q-129 0 -212 47t-116 116h-20v-532l-21 -21h-82zM246 512q0 -213 85 -321.5t242 -108.5t242.5 108.5t85.5 321.5t-85.5 321.5t-242.5 108.5 t-242 -108.5t-85 -321.5z" />
<glyph unicode="q" horiz-adv-x="1085" d="M61 512q0 156 47 274.5t145.5 188t238.5 69.5q127 0 209.5 -47t117.5 -116h21l20 123l21 20h61l21 -20v-1393l-21 -21h-82l-20 21v532h-21q-35 -69 -117.5 -116t-209.5 -47q-140 0 -238.5 69.5t-145.5 188t-47 274.5zM184 512q0 -213 85.5 -321.5t242.5 -108.5 t242.5 108.5t85.5 321.5t-85.5 321.5t-242.5 108.5t-242.5 -108.5t-85.5 -321.5z" />
<glyph unicode="r" horiz-adv-x="696" d="M123 20v984l20 20h62l20 -20l21 -123h20q87 143 287 143h82l20 -20v-62l-20 -20h-103q-147 0 -216.5 -93t-69.5 -256v-553l-21 -20h-82z" />
<glyph unicode="s" horiz-adv-x="901" d="M61 307l21 21h82l20 -21q0 -100 67 -162.5t200 -62.5q266 0 266 184q0 39 -7 68.5t-25.5 50.5t-38.5 35.5t-57.5 26.5t-70.5 20.5t-89 20.5q-13 3 -19 4q-162 32 -245 100t-83 186q0 111 93 188.5t255 77.5q107 0 187.5 -28t131 -93.5t50.5 -164.5l-21 -21h-82l-20 21 q0 184 -246 184q-109 0 -167 -42.5t-58 -121.5q0 -41 15.5 -71.5t39 -50t70 -35.5t88 -25.5t114.5 -22.5q159 -32 233.5 -102t74.5 -205q0 -129 -99 -207.5t-290 -78.5q-180 0 -285 92.5t-105 234.5z" />
<glyph unicode="t" horiz-adv-x="737" d="M41 942v62l20 20h164l21 20v185l20 20h82l21 -20v-185l20 -20h246l20 -20v-62l-20 -20h-246l-20 -21v-676q0 -123 123 -123h143l20 -20v-62l-20 -20h-143q-113 0 -179.5 58.5t-66.5 166.5v676l-21 21h-164z" />
<glyph unicode="u" horiz-adv-x="1044" d="M102 369v635l21 20h82l20 -20v-635q0 -148 65 -217.5t181 -69.5q166 0 247 96.5t81 272.5v553l20 20h82l21 -20v-984l-21 -20h-61l-21 20l-20 123h-21q-47 -78 -132 -120.5t-195 -42.5q-160 0 -254.5 98t-94.5 291z" />
<glyph unicode="v" horiz-adv-x="1044" d="M61 942v62l21 20h61l21 -20l348 -861h20l349 861l20 20h62l20 -20v-62l-389 -922l-21 -20h-102l-20 20z" />
<glyph unicode="w" horiz-adv-x="1536" d="M82 942v62l20 20h62l20 -20l246 -820h21l245 820l21 20h102l21 -20l245 -820h21l246 820l20 20h62l20 -20v-62l-287 -922l-20 -20h-103l-20 20l-246 820h-20l-246 -820l-20 -20h-103l-20 20z" />
<glyph unicode="x" horiz-adv-x="962" d="M82 20v62l307 430v20l-307 410v62l20 20h41l41 -20l287 -390h21l286 390l41 20h41l21 -20v-62l-308 -410v-20l308 -430v-62l-21 -20h-41l-41 20l-286 410h-21l-287 -410l-41 -20h-41z" />
<glyph unicode="y" horiz-adv-x="962" d="M61 942v62l21 20h61l21 -20l307 -861h21l307 861l20 20h62l20 -20v-62l-328 -901q-20 -55 -34.5 -90.5t-34.5 -76t-39 -65.5t-45.5 -49.5t-57 -37.5t-70 -21t-87.5 -8h-41l-21 20v62l21 20h41q40 0 73.5 12.5t53 27.5t37 41.5t24.5 42t17 40.5v41z" />
<glyph unicode="z" horiz-adv-x="1003" d="M82 20v82l20 41l635 758v21h-614l-21 20v62l21 20h737l21 -20v-82l-21 -41l-635 -758v-21h676l21 -20v-62l-21 -20h-799z" />
<glyph unicode="{" horiz-adv-x="839" d="M164 492v40l20 21q70 0 96.5 52t26.5 153v368q0 147 88 227.5t219 80.5h41l21 -21v-61l-21 -21h-41q-83 0 -133.5 -50t-50.5 -155v-389q0 -168 -102 -205v-40q102 -37 102 -205v-389q0 -105 50.5 -155t133.5 -50h41l21 -21v-61l-21 -21h-41q-131 0 -219 80.5t-88 227.5 v368q0 101 -26.5 153t-96.5 52z" />
<glyph unicode="|" horiz-adv-x="614" d="M246 -389v1802l20 21h82l21 -21v-1802l-21 -21h-82z" />
<glyph unicode="}" horiz-adv-x="839" d="M164 -328l20 21h41q84 0 134.5 50t50.5 155v389q0 168 102 205v40q-102 37 -102 205v389q0 105 -50.5 155t-134.5 50h-41l-20 21v61l20 21h41q131 0 219 -80.5t88 -227.5v-368q0 -102 26 -153.5t97 -51.5l21 -21v-40l-21 -21q-71 0 -97 -51.5t-26 -153.5v-368 q0 -147 -88 -227.5t-219 -80.5h-41l-20 21v61z" />
<glyph unicode="~" d="M123 430q0 67 20.5 116.5t56.5 77t78 40t91 12.5q56 0 112 -23t101 -56t87.5 -66.5t87 -56.5t83.5 -23q26 0 45.5 5.5t38.5 19.5t29 44t10 74l20 20h61l21 -20q0 -67 -20.5 -116.5t-56.5 -77t-78 -40t-91 -12.5q-57 0 -113 23t-100.5 56t-86.5 66.5t-86.5 56.5t-84.5 23 q-26 0 -45.5 -5.5t-38.5 -19.5t-29 -44t-10 -74l-20 -20h-62z" />
<glyph unicode="&#xa1;" horiz-adv-x="655" d="M246 840v164l20 20h123l21 -20v-164l-21 -21h-123zM266 164l21 471l20 20h41l21 -20l20 -471v-553l-20 -21h-82l-21 21v553z" />
<glyph unicode="&#xa2;" horiz-adv-x="1044" d="M61 512q0 107 23 194.5t62 146t92.5 100t111 63t121.5 28.5l21 21v82l20 20h61l21 -20v-82l20 -21q147 -18 249.5 -109t119.5 -239l-20 -20h-82l-21 20q-18 98 -79.5 164t-166.5 82l-20 -20v-820l20 -20q105 16 166.5 82t79.5 164l21 20h82l20 -20q-17 -148 -119.5 -239 t-249.5 -109l-20 -21v-82l-21 -20h-61l-20 20v82l-21 21q-82 9 -151.5 41.5t-129.5 93t-94.5 162t-34.5 235.5zM184 512q0 -103 24 -184t66 -130.5t91 -78t106 -37.5l21 20v820l-21 20q-129 -18 -208 -127.5t-79 -302.5z" />
<glyph unicode="&#xa3;" horiz-adv-x="1228" d="M82 20v62l20 20h21q76 0 109.5 45t33.5 140v307l-20 20h-123l-21 21v61l21 21h123l20 20v287q0 210 110 320t300 110q201 0 295 -105.5t94 -324.5l-21 -20h-81l-21 20q0 75 -10.5 129.5t-38 102t-82 72t-135.5 24.5q-146 0 -216.5 -90t-70.5 -238v-287l21 -20h450l21 -21 v-61l-21 -21h-450l-21 -20v-287q0 -123 -61 -184v-21h798l21 -20v-62l-21 -20h-1024z" />
<glyph unicode="&#xa4;" horiz-adv-x="1310" d="M123 41v20l102 103v20q-102 147 -102 328q0 188 102 328v20l-102 103v20l61 61h21l102 -102h21q147 102 327 102q72 0 138.5 -17.5t101 -34.5t77.5 -43q2 -2 3.5 -3t3.5 -2l4 -2h21l102 102h20l62 -61v-20l-103 -103v-20q54 -91 72 -142q31 -87 31 -186q0 -180 -103 -328 v-20l103 -103v-20l-62 -61h-20l-102 102h-21q-140 -102 -328 -102q-180 0 -327 102h-21l-102 -102h-21zM246 512q0 -187 113.5 -308.5t295.5 -121.5t296 121.5t114 308.5t-114 308.5t-296 121.5t-295.5 -121.5t-113.5 -308.5z" />
<glyph unicode="&#xa5;" horiz-adv-x="1146" d="M102 1352v61l21 21h41l41 -21l348 -717h41l348 717l41 21h41l20 -21v-61l-327 -635v-21h225l21 -20v-62l-21 -20h-246l-41 -21l-20 -41v-81l20 -21h226l20 -20v-62l-20 -20h-226l-20 -21v-287l-21 -20h-82l-20 20v287l-20 21h-226l-20 20v62l20 20h226l20 21v81l-20 41 l-41 21h-246l-21 20v62l21 20h225v21z" />
<glyph unicode="&#xa6;" horiz-adv-x="614" d="M246 20v553l20 21h82l21 -21v-553l-21 -20h-82zM246 860v553l20 21h82l21 -21v-553l-21 -20h-82z" />
<glyph unicode="&#xa7;" horiz-adv-x="1351" d="M123 594q0 67 20 119.5t54 85.5t71.5 53t79.5 29v20q-76 46 -109.5 106t-33.5 140q0 64 25 117.5t78.5 97t147 68t220.5 24.5q233 0 352 -103.5t119 -306.5l-21 -20h-82l-20 20q0 72 -17.5 126t-58.5 96.5t-114.5 64t-178.5 21.5q-166 0 -246.5 -54.5t-80.5 -150.5 q0 -40 10.5 -72t36.5 -57t54 -43t78.5 -35.5t94 -29.5t115.5 -29q82 -20 148.5 -42t137 -58.5t118 -80.5t78 -108t30.5 -141q0 -116 -60 -192t-145 -95v-21q64 -47 88 -76q55 -67 55 -169q0 -148 -120.5 -238t-370.5 -90q-238 0 -354.5 109t-116.5 301l20 20h82l21 -20 q0 -158 85.5 -233t282.5 -75q171 0 259.5 57.5t88.5 168.5q0 40 -12 72t-41 57t-60 43t-87.5 35.5t-103.5 29.5t-126 29q-86 19 -154.5 42t-133.5 58.5t-108 80t-69 108t-26 141.5zM246 594q0 -39 10 -73.5t26 -61.5t44 -51t55.5 -42t68.5 -35.5t75.5 -29.5t84.5 -26 t87.5 -23.5t92 -23t91.5 -23.5h20q205 45 205 246q0 49 -16.5 90t-41.5 71t-68 57.5t-83 45t-100 36.5t-105 30.5t-112.5 29t-108.5 29.5h-20q-205 -45 -205 -246z" />
<glyph unicode="&#xa8;" horiz-adv-x="1024" d="M266 1208v123l21 21h102l21 -21v-123l-21 -20h-102zM614 1208v123l21 21h102l21 -21v-123l-21 -20h-102z" />
<glyph unicode="&#xa9;" horiz-adv-x="1720" d="M123 717q0 151 58 287.5t156.5 235t235 156.5t287.5 58t287.5 -58t235 -156.5t156.5 -235t58 -287.5t-58 -287.5t-156.5 -235t-235 -156.5t-287.5 -58t-287.5 58t-235 156.5t-156.5 235t-58 287.5zM225 717q0 -129 50.5 -246.5t135.5 -202.5t202.5 -135.5t246.5 -50.5 t246.5 50.5t202.5 135.5t135.5 202.5t50.5 246.5t-50.5 246.5t-135.5 202.5t-202.5 135.5t-246.5 50.5t-246.5 -50.5t-202.5 -135.5t-135.5 -202.5t-50.5 -246.5zM471 717q0 209 107 319.5t282 110.5q57 0 111 -14t106 -45t87.5 -89.5t43.5 -138.5l-20 -20h-82l-21 20 q-34 184 -225 184q-133 0 -199.5 -90t-66.5 -237t66.5 -237.5t199.5 -90.5q191 0 225 184l21 21h82l20 -21q-7 -64 -32 -115t-59.5 -82.5t-79.5 -52t-88.5 -28.5t-88.5 -8q-175 0 -282 110.5t-107 319.5z" />
<glyph unicode="&#xaa;" horiz-adv-x="1105" d="M164 1065q0 189 100 289t248 100q123 0 205 -82h20l21 41l20 21h62l20 -21v-532q0 -30 11.5 -46t29.5 -16h21l20 -20v-82l-20 -21h-41q-49 0 -77.5 18t-45.5 64h-21q-30 -33 -59 -51q-74 -51 -166 -51q-148 0 -248 100t-100 289zM205 553v20l20 21h676l21 -21v-20 l-21 -21h-676zM287 1065q0 -136 64 -211.5t161 -75.5q107 0 166 80t59 207t-59 207t-166 80q-97 0 -161 -75.5t-64 -211.5z" />
<glyph unicode="&#xab;" horiz-adv-x="1249" d="M164 471v82l20 41l348 348l41 21h62l20 -21v-41l-368 -369v-40l368 -369v-41l-20 -21h-62l-41 21l-348 348zM594 471v82l20 41l349 348l41 21h61l20 -21v-41l-368 -369v-40l368 -369v-41l-20 -21h-61l-41 21l-349 348z" />
<glyph unicode="&#xac;" d="M123 492v61l20 20h861l20 -20v-348l-20 -21h-62l-20 21v246l-21 20h-758z" />
<glyph unicode="&#xad;" horiz-adv-x="798" d="M123 492v61l20 20h512l21 -20v-61l-21 -21h-512z" />
<glyph unicode="&#xae;" horiz-adv-x="1720" d="M123 717q0 151 58 287.5t156.5 235t235 156.5t287.5 58t287.5 -58t235 -156.5t156.5 -235t58 -287.5t-58 -287.5t-156.5 -235t-235 -156.5t-287.5 -58t-287.5 58t-235 156.5t-156.5 235t-58 287.5zM225 717q0 -129 50.5 -246.5t135.5 -202.5t202.5 -135.5t246.5 -50.5 t246.5 50.5t202.5 135.5t135.5 202.5t50.5 246.5t-50.5 246.5t-135.5 202.5t-202.5 135.5t-246.5 50.5t-246.5 -50.5t-202.5 -135.5t-135.5 -202.5t-50.5 -246.5zM553 328v778l20 20h410q113 0 189.5 -64t76.5 -181q0 -89 -51.5 -148.5t-132.5 -77.5v-20l164 -225v-82 l-21 -21h-20l-41 21l-205 286l-41 21h-205l-20 -21v-286l-21 -21h-82zM676 758l20 -21h287q74 0 108.5 39t34.5 105t-34.5 104.5t-108.5 38.5h-287l-20 -20v-246z" />
<glyph unicode="&#xaf;" horiz-adv-x="1024" d="M205 1229v61l20 21h574l20 -21v-61l-20 -21h-574z" />
<glyph unicode="&#xb0;" d="M164 1024q0 184 123 307t307 123t307 -123t123 -307t-123 -307t-307 -123t-307 123t-123 307zM287 1024q0 -140 85.5 -234t221.5 -94t221.5 94t85.5 234t-85.5 234t-221.5 94t-221.5 -94t-85.5 -234z" />
<glyph unicode="&#xb1;" d="M143 20v62l21 20h880l21 -20v-62l-21 -20h-880zM143 614v62l21 20h368l21 21v287l20 20h62l20 -20v-287l21 -21h368l21 -20v-62l-21 -20h-368l-21 -21v-286l-20 -21h-62l-20 21v286l-21 21h-368z" />
<glyph unicode="&#xb2;" horiz-adv-x="696" d="M102 717v82l21 41l164 123q114 84 149 140.5t35 125.5q0 123 -123 123q-36 0 -62 -13t-38 -33.5t-17.5 -39.5t-5.5 -37l-20 -21h-82l-21 21q0 97 64 161t182 64t182 -64t64 -161q0 -100 -56.5 -175t-189.5 -173l-82 -62v-20h328l20 -21v-61l-20 -21h-471z" />
<glyph unicode="&#xb3;" horiz-adv-x="696" d="M82 922l20 20h82l21 -20q0 -19 5.5 -40.5t19.5 -46.5t44.5 -41t73.5 -16q35 0 62 11t42 27.5t24.5 37.5t12.5 37t3 31q0 66 -36 97.5t-85 31.5q-22 0 -43 -7h-41l-21 21v61l185 185v20h-308l-20 21v61l20 21h410l20 -21v-102l-20 -41l-123 -123v-21q84 0 134 -49.5 t50 -154.5q0 -111 -72 -178.5t-194 -67.5t-194 67.5t-72 178.5z" />
<glyph unicode="&#xb4;" horiz-adv-x="1024" d="M348 1167v41l184 205l41 21h62l20 -21v-41l-225 -205l-41 -20h-20z" />
<glyph unicode="&#xb5;" d="M184 -389v1393l21 20h82l20 -20v-574q0 -158 74.5 -253t212.5 -95t212.5 95t74.5 253v574l20 20h82l21 -20v-984l-21 -20h-61l-21 20l-20 103h-21q-30 -71 -105.5 -107t-160.5 -36q-84 0 -162 36t-104 107h-21v-512l-20 -21h-82z" />
<glyph unicode="&#xb6;" horiz-adv-x="1433" d="M143 1024q0 105 35.5 184.5t100 128.5t148.5 73t187 24h676l21 -21v-61l-21 -21h-123l-20 -20v-1700l-21 -21h-82l-20 21v1700l-20 20h-246l-21 -20v-1700l-20 -21h-82l-21 21v983l-20 20q-95 0 -175 24t-142.5 72.5t-98 129t-35.5 184.5z" />
<glyph unicode="&#xb7;" horiz-adv-x="491" d="M164 451v163l20 21h123l21 -21v-163l-21 -21h-123z" />
<glyph unicode="&#xb8;" horiz-adv-x="1024" d="M328 -328l20 21h21q20 -20 43.5 -29t42 -10.5t57.5 -1.5q50 0 76 18.5t26 63.5t-26 63.5t-76 18.5h-10q-31 0 -72 -21h-20l-21 21v20l164 164h82l-143 -143h20q39 20 72 20h10q52 0 87.5 -35t35.5 -108q0 -77 -55.5 -120.5t-149.5 -43.5q-62 0 -101 17.5t-83 64.5v20z " />
<glyph unicode="&#xb9;" horiz-adv-x="716" d="M102 717v61l21 21h184l21 20v451h-21l-123 -123h-41l-20 20v62l184 184l41 21h82l21 -21v-594l20 -20h143l21 -21v-61l-21 -21h-491z" />
<glyph unicode="&#xba;" horiz-adv-x="1064" d="M164 1065q0 171 100.5 280t267.5 109t268 -109t101 -280t-101 -280t-268 -109t-267.5 109t-100.5 280zM205 553v20l20 21h615l20 -21v-20l-20 -21h-615zM287 1065q0 -128 63 -207.5t182 -79.5t182.5 79.5t63.5 207.5t-63.5 207.5t-182.5 79.5t-182 -79.5t-63 -207.5z" />
<glyph unicode="&#xbb;" horiz-adv-x="1249" d="M164 82v41l368 369v40l-368 369v41l20 21h62l41 -21l348 -348l20 -41v-82l-20 -41l-348 -348l-41 -21h-62zM594 82v41l369 369v40l-369 369v41l20 21h62l41 -21l348 -348l20 -41v-82l-20 -41l-348 -348l-41 -21h-62z" />
<glyph unicode="&#xbc;" horiz-adv-x="1597" d="M102 717v61l21 21h184l21 20v451h-21l-123 -123h-41l-20 20v62l184 184l41 21h82l21 -21v-594l20 -20h143l21 -21v-61l-21 -21h-491zM369 20v62l839 1331l21 21h61l21 -21v-61l-840 -1332l-20 -20h-62zM860 184v82l21 41l348 410l41 20h102l21 -20v-697l-21 -20h-82 l-20 20v123l-21 21h-368zM1004 266h245l21 21v286h-21l-245 -286v-21z" />
<glyph unicode="&#xbd;" horiz-adv-x="1658" d="M102 717v61l21 21h184l21 20v451h-21l-123 -123h-41l-20 20v62l184 184l41 21h82l21 -21v-594l20 -20h143l21 -21v-61l-21 -21h-491zM369 20v62l839 1331l21 21h61l21 -21v-61l-840 -1332l-20 -20h-62zM1024 20v82l20 41l164 123q114 84 149.5 140.5t35.5 125.5 q0 123 -123 123q-36 0 -62 -13t-38 -33.5t-17.5 -39.5t-5.5 -37l-21 -20h-82l-20 20q0 97 64 161.5t182 64.5t182 -64.5t64 -161.5q0 -100 -56.5 -175t-189.5 -173l-82 -61v-21h328l20 -20v-62l-20 -20h-472z" />
<glyph unicode="&#xbe;" horiz-adv-x="1617" d="M123 922l20 20h82l21 -20q0 -19 5.5 -40.5t19.5 -46.5t44.5 -41t73.5 -16t73.5 16t44.5 41t19.5 46.5t5.5 40.5q0 66 -35.5 97.5t-84.5 31.5q-22 0 -43 -7h-41l-21 21v61l185 185v20h-308l-20 21v61l20 21h410l20 -21v-102l-20 -41l-123 -123v-21q84 0 134 -49.5 t50 -154.5q0 -111 -72 -178.5t-194 -67.5t-194 67.5t-72 178.5zM389 20v62l840 1331l20 21h62l20 -21v-61l-839 -1332l-21 -20h-61zM881 184v82l20 41l348 410l41 20h103l20 -20v-697l-20 -20h-82l-21 20v123l-20 21h-369zM1024 266h246l20 21v286h-20l-246 -286v-21z" />
<glyph unicode="&#xbf;" horiz-adv-x="1146" d="M164 -61q0 74 16 134t51 110t69 84.5t89 80.5q92 79 117.5 132.5t25.5 174.5l21 21h82l20 -21q0 -138 -34 -212t-129 -156q-108 -89 -156.5 -162t-48.5 -186q0 -55 16.5 -101.5t49.5 -84.5t89.5 -59.5t130.5 -21.5q143 0 215 79.5t72 248.5l21 20h82l20 -20 q0 -205 -105 -317.5t-305 -112.5q-189 0 -299 94.5t-110 274.5zM512 840v164l20 20h123l21 -20v-164l-21 -21h-123z" />
<glyph unicode="&#xc0;" horiz-adv-x="1249" d="M41 20v62l512 1331l20 21h103l20 -21l512 -1331v-62l-20 -20h-62l-20 20l-143 369l-41 21h-594l-41 -21l-144 -369l-20 -20h-62zM348 532l21 -20h512l20 20l-266 717h-21zM410 1782v41l20 20h62l40 -20l185 -205v-41l-21 -21h-20l-41 21z" />
<glyph unicode="&#xc1;" horiz-adv-x="1249" d="M41 20v62l512 1331l20 21h103l20 -21l512 -1331v-62l-20 -20h-62l-20 20l-143 369l-41 21h-594l-41 -21l-144 -369l-20 -20h-62zM348 532l21 -20h512l20 20l-266 717h-21zM532 1577v41l185 205l41 20h61l21 -20v-41l-226 -205l-41 -21h-20z" />
<glyph unicode="&#xc2;" horiz-adv-x="1249" d="M41 20v62l512 1331l20 21h103l20 -21l512 -1331v-62l-20 -20h-62l-20 20l-143 369l-62 21h-573l-41 -21l-144 -369l-20 -20h-62zM348 532l21 -20h512l20 20l-266 717h-21zM348 1577v41l205 205l41 20h61l41 -20l205 -205v-41l-20 -21h-21l-41 21l-184 143h-21l-184 -143 l-41 -21h-20z" />
<glyph unicode="&#xc3;" horiz-adv-x="1249" d="M41 20v62l512 1331l20 21h103l20 -21l512 -1331v-62l-20 -20h-62l-20 20l-143 369l-41 21h-594l-41 -21l-144 -369l-20 -20h-62zM348 532l21 -20h512l20 20l-266 717h-21zM348 1577q0 91 42.5 137.5t121.5 46.5q40 0 74.5 -12.5t58 -30.5t45 -36.5t44 -31t44.5 -12.5 q32 0 47 18t15 64l20 21h41l21 -21q0 -91 -42.5 -137.5t-121.5 -46.5q-40 0 -74.5 12.5t-58 31t-45 36.5t-44 30.5t-44.5 12.5q-32 0 -47 -18t-15 -64l-20 -21h-41z" />
<glyph unicode="&#xc4;" horiz-adv-x="1249" d="M41 20v62l512 1331l20 21h103l20 -21l512 -1331v-62l-20 -20h-62l-20 20l-143 369l-41 21h-594l-41 -21l-144 -369l-20 -20h-62zM348 532l21 -20h512l20 20l-266 717h-21zM389 1618v123l21 20h102l20 -20v-123l-20 -21h-102zM717 1618v123l20 20h103l20 -20v-123l-20 -21 h-103z" />
<glyph unicode="&#xc5;" horiz-adv-x="1249" d="M41 20v62l512 1331l20 21h103l20 -21l512 -1331v-62l-20 -20h-62l-20 20l-143 369l-41 21h-594l-41 -21l-144 -369l-20 -20h-62zM348 532l21 -20h512l20 20l-266 717h-21zM410 1659q0 79 56.5 131.5t147.5 52.5h21q91 0 148 -52.5t57 -131.5t-57 -131.5t-148 -52.5h-21 q-91 0 -147.5 52.5t-56.5 131.5zM512 1659q0 -47 27.5 -75t74.5 -28h21q47 0 74.5 28t27.5 75t-27.5 74.5t-74.5 27.5h-21q-47 0 -74.5 -27.5t-27.5 -74.5z" />
<glyph unicode="&#xc6;" horiz-adv-x="1925" d="M61 20v62l738 1331l20 21h983l21 -21v-61l-21 -21h-696l-21 -20v-512l21 -21h655l21 -20v-62l-21 -20h-655l-21 -21v-532l21 -21h696l21 -20v-62l-21 -20h-819l-20 20v369l-21 21h-532l-41 -21l-205 -369l-21 -20h-61zM451 532l20 -20h471l21 20v779l-21 20h-41l-20 -20z " />
<glyph unicode="&#xc7;" horiz-adv-x="1372" d="M82 717q0 179 53 322t144 232t208 136t250 47q147 0 263 -47.5t192.5 -145t97.5 -237.5l-20 -20h-82l-21 20q-31 157 -139.5 242.5t-290.5 85.5q-237 0 -384.5 -167.5t-147.5 -467.5t147.5 -467.5t384.5 -167.5q368 0 430 348l21 21h82l20 -21q-16 -110 -62.5 -195 t-115 -136.5t-146.5 -80.5t-167 -38l-41 -21l-103 -102h21q39 20 72 20h10q52 0 87.5 -35t35.5 -108q0 -77 -55.5 -120.5t-149.5 -43.5q-62 0 -101 17.5t-83 64.5v20l20 21h20q28 -28 57.5 -34.5t86.5 -6.5q50 0 76 18.5t26 63.5t-26 63.5t-76 18.5h-10q-31 0 -72 -21h-21 l-20 21v20l123 123v21q-84 7 -165 35.5t-160 86.5t-137.5 139.5t-95 204.5t-36.5 271z" />
<glyph unicode="&#xc8;" d="M164 20v1393l20 21h881l20 -21v-61l-20 -21h-758l-20 -20v-512l20 -21h717l20 -20v-62l-20 -20h-717l-20 -21v-532l20 -21h758l20 -20v-62l-20 -20h-881zM451 1782v41l20 20h61l41 -20l185 -205v-41l-21 -21h-20l-41 21z" />
<glyph unicode="&#xc9;" d="M164 20v1393l20 21h881l20 -21v-61l-20 -21h-758l-20 -20v-512l20 -21h717l20 -20v-62l-20 -20h-717l-20 -21v-532l20 -21h758l20 -20v-62l-20 -20h-881zM492 1577v41l184 205l41 20h61l21 -20v-41l-226 -205l-41 -21h-20z" />
<glyph unicode="&#xca;" d="M164 20v1393l20 21h881l20 -21v-61l-20 -21h-758l-20 -20v-512l20 -21h717l20 -20v-62l-20 -20h-717l-20 -21v-532l20 -21h758l20 -20v-62l-20 -20h-881zM348 1577v41l205 205l41 20h82l41 -20l205 -205v-41l-21 -21h-20l-41 21l-185 143h-41l-184 -143l-41 -21h-20z" />
<glyph unicode="&#xcb;" d="M164 20v1393l20 21h881l20 -21v-61l-20 -21h-758l-20 -20v-512l20 -21h717l20 -20v-62l-20 -20h-717l-20 -21v-532l20 -21h758l20 -20v-62l-20 -20h-881zM389 1618v123l21 20h102l20 -20v-123l-20 -21h-102zM737 1618v123l21 20h102l21 -20v-123l-21 -21h-102z" />
<glyph unicode="&#xcc;" horiz-adv-x="450" d="M0 1782v41l20 20h62l41 -20l184 -205v-41l-20 -21l-62 21zM164 20v1393l20 21h82l21 -21v-1393l-21 -20h-82z" />
<glyph unicode="&#xcd;" horiz-adv-x="450" d="M143 1577v41l185 205l41 20h61l21 -20v-41l-226 -205l-41 -21h-20zM164 20v1393l20 21h82l21 -21v-1393l-21 -20h-82z" />
<glyph unicode="&#xce;" horiz-adv-x="450" d="M-61 1577v41l204 205l41 20h82l41 -20l205 -205v-41l-20 -21h-21l-41 21l-184 143h-41l-185 -143l-40 -21h-21zM164 20v1393l20 21h82l21 -21v-1393l-21 -20h-82z" />
<glyph unicode="&#xcf;" horiz-adv-x="450" d="M-20 1618v123l20 20h102l21 -20v-123l-21 -21h-102zM164 20v1393l20 21h82l21 -21v-1393l-21 -20h-82zM328 1618v123l20 20h103l20 -20v-123l-20 -21h-103z" />
<glyph unicode="&#xd0;" horiz-adv-x="1372" d="M0 696v62l20 20h123l21 21v614l20 21h389q189 0 321 -48t209.5 -143.5t111.5 -223.5t34 -302q0 -176 -34 -304t-111.5 -223t-209.5 -142.5t-321 -47.5h-389l-20 20v635l-21 21h-123zM287 123l20 -21h266q153 0 259.5 37.5t171 116t93.5 191t29 270.5q0 121 -16 213.5 t-54.5 170t-101 127t-158 76.5t-223.5 27h-266l-20 -20v-512l20 -21h348l21 -20v-62l-21 -20h-348l-20 -21v-532z" />
<glyph unicode="&#xd1;" horiz-adv-x="1454" d="M164 20v1393l20 21h103l41 -21l819 -1208h20v1208l21 21h82l20 -21v-1393l-20 -20h-103l-41 20l-819 1209h-20v-1209l-21 -20h-82zM451 1577q0 91 42 137.5t121 46.5q48 0 90 -19t66.5 -42.5t54 -42.5t56.5 -19q32 0 46.5 18t14.5 64l21 21h41l20 -21q0 -91 -42.5 -137.5 t-121.5 -46.5q-40 0 -74.5 12.5t-58 31t-45 36.5t-44 30.5t-44.5 12.5q-32 0 -47 -18t-15 -64l-20 -21h-41z" />
<glyph unicode="&#xd2;" horiz-adv-x="1474" d="M82 717q0 150 34.5 273.5t95 208.5t144 143t179 85t202.5 27t202.5 -27t179.5 -85t144.5 -143t95 -208.5t34.5 -273.5t-34.5 -273.5t-95 -208.5t-144.5 -143t-179.5 -85t-202.5 -27t-202.5 27t-179 85t-144 143t-95 208.5t-34.5 273.5zM205 717q0 -311 146 -473t386 -162 t386.5 162t146.5 473t-146.5 473t-386.5 162t-386 -162t-146 -473zM553 1782v41l20 20h62l41 -20l184 -205v-41l-20 -21h-21l-41 21z" />
<glyph unicode="&#xd3;" horiz-adv-x="1474" d="M82 717q0 150 34.5 273.5t95 208.5t144 143t179 85t202.5 27t202.5 -27t179.5 -85t144.5 -143t95 -208.5t34.5 -273.5t-34.5 -273.5t-95 -208.5t-144.5 -143t-179.5 -85t-202.5 -27t-202.5 27t-179 85t-144 143t-95 208.5t-34.5 273.5zM205 717q0 -311 146 -473t386 -162 t386.5 162t146.5 473t-146.5 473t-386.5 162t-386 -162t-146 -473zM614 1577v41l185 205l41 20h61l21 -20v-41l-226 -205l-41 -21h-20z" />
<glyph unicode="&#xd4;" horiz-adv-x="1474" d="M82 717q0 150 34.5 273.5t95 208.5t144 143t179 85t202.5 27t202.5 -27t179.5 -85t144.5 -143t95 -208.5t34.5 -273.5t-34.5 -273.5t-95 -208.5t-144.5 -143t-179.5 -85t-202.5 -27t-202.5 27t-179 85t-144 143t-95 208.5t-34.5 273.5zM205 717q0 -311 146 -473t386 -162 t386.5 162t146.5 473t-146.5 473t-386.5 162t-386 -162t-146 -473zM451 1577v41l204 205l41 20h82l41 -20l205 -205v-41l-20 -21h-21l-41 21l-184 143h-41l-185 -143l-40 -21h-21z" />
<glyph unicode="&#xd5;" horiz-adv-x="1474" d="M82 717q0 150 34.5 273.5t95 208.5t144 143t179 85t202.5 27t202.5 -27t179.5 -85t144.5 -143t95 -208.5t34.5 -273.5t-34.5 -273.5t-95 -208.5t-144.5 -143t-179.5 -85t-202.5 -27t-202.5 27t-179 85t-144 143t-95 208.5t-34.5 273.5zM205 717q0 -311 146 -473t386 -162 t386.5 162t146.5 473t-146.5 473t-386.5 162t-386 -162t-146 -473zM451 1577q0 91 42 137.5t121 46.5q48 0 90 -19t66.5 -42.5t54 -42.5t56.5 -19q32 0 46.5 18t14.5 64l21 21h41l20 -21q0 -91 -42.5 -137.5t-121.5 -46.5q-40 0 -74.5 12.5t-58 31t-45 36.5t-44 30.5 t-44.5 12.5q-32 0 -47 -18t-15 -64l-20 -21h-41z" />
<glyph unicode="&#xd6;" horiz-adv-x="1474" d="M82 717q0 150 34.5 273.5t95 208.5t144 143t179 85t202.5 27t202.5 -27t179.5 -85t144.5 -143t95 -208.5t34.5 -273.5t-34.5 -273.5t-95 -208.5t-144.5 -143t-179.5 -85t-202.5 -27t-202.5 27t-179 85t-144 143t-95 208.5t-34.5 273.5zM205 717q0 -311 146 -473t386 -162 t386.5 162t146.5 473t-146.5 473t-386.5 162t-386 -162t-146 -473zM492 1618v123l20 20h102l21 -20v-123l-21 -21h-102zM840 1618v123l20 20h103l20 -20v-123l-20 -21h-103z" />
<glyph unicode="&#xd7;" horiz-adv-x="1167" d="M164 164v20l328 328v20l-328 328v21l61 61h21l327 -328h21l328 328h20l62 -61v-21l-328 -328v-20l328 -328v-20l-62 -62h-20l-328 328h-21l-327 -328h-21z" />
<glyph unicode="&#xd8;" horiz-adv-x="1474" d="M82 123v20l102 103v20q-102 168 -102 451q0 150 34.5 273.5t95 208.5t144 143t179 85t202.5 27q287 0 471 -184h21l82 82l41 20h20l21 -20v-21l-123 -123v-20q123 -184 123 -471q0 -150 -34.5 -273.5t-95 -208.5t-144.5 -143t-179.5 -85t-202.5 -27q-145 0 -264 48 t-227 156h-21l-61 -61l-41 -21h-21zM205 717q0 -247 61 -369h21l839 819v21q-164 164 -389 164q-240 0 -386 -162t-146 -473zM328 266q75 -89 185.5 -136.5t223.5 -47.5q240 0 386.5 162t146.5 473q0 129 -18.5 221.5t-63.5 167.5h-21l-839 -819v-21z" />
<glyph unicode="&#xd9;" horiz-adv-x="1392" d="M164 512v901l20 21h82l21 -21v-901q0 -199 111.5 -314.5t297.5 -115.5q200 0 305 112.5t105 317.5v901l20 21h82l21 -21v-901q0 -246 -143.5 -389t-389.5 -143t-389 143t-143 389zM512 1782v41l20 20h62l41 -20l184 -205v-41l-20 -21h-21l-41 21z" />
<glyph unicode="&#xda;" horiz-adv-x="1392" d="M164 512v901l20 21h82l21 -21v-901q0 -199 111.5 -314.5t297.5 -115.5q200 0 305 112.5t105 317.5v901l20 21h82l21 -21v-901q0 -246 -143.5 -389t-389.5 -143t-389 143t-143 389zM573 1577v41l185 205l41 20h61l21 -20v-41l-226 -205l-41 -21h-20z" />
<glyph unicode="&#xdb;" horiz-adv-x="1392" d="M164 512v901l20 21h82l21 -21v-901q0 -199 111.5 -314.5t297.5 -115.5q200 0 305 112.5t105 317.5v901l20 21h82l21 -21v-901q0 -246 -143.5 -389t-389.5 -143t-389 143t-143 389zM410 1577v41l204 205l41 20h82l41 -20l205 -205v-41l-20 -21h-21l-41 21l-184 143h-41 l-184 -143l-41 -21h-21z" />
<glyph unicode="&#xdc;" horiz-adv-x="1392" d="M164 512v901l20 21h82l21 -21v-901q0 -199 111.5 -314.5t297.5 -115.5q200 0 305 112.5t105 317.5v901l20 21h82l21 -21v-901q0 -246 -143.5 -389t-389.5 -143t-389 143t-143 389zM451 1618v123l20 20h102l21 -20v-123l-21 -21h-102zM799 1618v123l20 20h103l20 -20v-123 l-20 -21h-103z" />
<glyph unicode="&#xdd;" horiz-adv-x="1146" d="M61 1352v61l21 21h41l41 -21l389 -676h41l389 676l41 21h41l20 -21v-61l-450 -758v-574l-21 -20h-82l-20 20v574zM471 1577v41l184 205l41 20h62l20 -20v-41l-225 -205l-41 -21h-20z" />
<glyph unicode="&#xde;" horiz-adv-x="1208" d="M164 20v1393l20 21h82l21 -21v-307l20 -21h410q409 0 409 -368q0 -369 -409 -369h-410l-20 -20v-308l-21 -20h-82zM287 471l20 -20h389q168 0 238 62.5t70 203.5t-70 203.5t-238 62.5h-389l-20 -20v-492z" />
<glyph unicode="&#xdf;" d="M61 942v62l21 20h102l21 20q0 186 115.5 298t314.5 112q205 0 307 -102.5t102 -266.5q0 -131 -59 -209.5t-145 -97.5v-20q117 -19 191.5 -104.5t74.5 -243.5q0 -86 -24.5 -161.5t-72.5 -136.5t-128.5 -96.5t-184.5 -35.5q-77 0 -139 20q-26 9 -45 20l-20 21v41l20 20 q13 -5 45 -10q58 -10 139 -10q146 0 216.5 90t70.5 238q0 154 -85.5 220t-283.5 66l-20 21v61l20 21q308 0 308 286q0 115 -71 191t-216 76q-151 0 -229 -82t-78 -226v-1024l-21 -20h-82l-20 20v881l-21 21h-102z" />
<glyph unicode="&#xe0;" horiz-adv-x="983" d="M61 287q0 166 112 246.5t319 80.5q89 0 167 -10q29 -6 78 -10l21 20v62q0 141 -58.5 203.5t-207.5 62.5q-143 0 -205 -58t-62 -147l-20 -20h-82l-21 20q0 132 100 219.5t290 87.5q113 0 190 -25t120 -75.5t61 -114.5t18 -153v-656l-21 -20h-61l-21 20l-20 103h-21 q-16 -22 -31.5 -38.5t-43.5 -37.5t-60.5 -34.5t-82.5 -23t-109 -9.5q-169 0 -259 81.5t-90 225.5zM184 287q0 -99 56.5 -152t189.5 -53q81 0 145.5 27.5t103.5 72.5t59 98.5t20 108.5v82l-21 21l-32 4l-35 6q-68 10 -158 10q-177 0 -252.5 -57t-75.5 -168zM307 1372v41 l21 21h61l41 -21l184 -205v-41l-20 -20h-21l-41 20z" />
<glyph unicode="&#xe1;" horiz-adv-x="983" d="M61 287q0 166 112 246.5t319 80.5q89 0 167 -10q29 -6 78 -10l21 20v62q0 141 -58.5 203.5t-207.5 62.5q-143 0 -205 -58t-62 -147l-20 -20h-82l-21 20q0 132 100 219.5t290 87.5q113 0 190 -25t120 -75.5t61 -114.5t18 -153v-656l-21 -20h-61l-21 20l-20 103h-21 q-16 -22 -31.5 -38.5t-43.5 -37.5t-60.5 -34.5t-82.5 -23t-109 -9.5q-169 0 -259 81.5t-90 225.5zM184 287q0 -99 56.5 -152t189.5 -53q81 0 145.5 27.5t103.5 72.5t59 98.5t20 108.5v82l-21 21l-32 4l-35 6q-68 10 -158 10q-177 0 -252.5 -57t-75.5 -168zM369 1167v41 l184 205l41 21h61l21 -21v-41l-225 -205l-41 -20h-21z" />
<glyph unicode="&#xe2;" horiz-adv-x="983" d="M61 287q0 166 112 246.5t319 80.5q89 0 167 -10q29 -6 78 -10l21 20v62q0 141 -58.5 203.5t-207.5 62.5q-143 0 -205 -58t-62 -147l-20 -20h-82l-21 20q0 132 100 219.5t290 87.5q113 0 190 -25t120 -75.5t61 -114.5t18 -153v-656l-21 -20h-61l-21 20l-20 103h-21 q-16 -22 -31.5 -38.5t-43.5 -37.5t-60.5 -34.5t-82.5 -23t-109 -9.5q-169 0 -259 81.5t-90 225.5zM184 287q0 -99 56.5 -152t189.5 -53q81 0 145.5 27.5t103.5 72.5t59 98.5t20 108.5v82l-21 21l-32 4l-35 6q-68 10 -158 10q-177 0 -252.5 -57t-75.5 -168zM205 1167v41 l205 205l41 21h81l41 -21l205 -205v-41l-20 -20h-21l-41 20l-184 144h-41l-184 -144l-41 -20h-21z" />
<glyph unicode="&#xe3;" horiz-adv-x="983" d="M61 287q0 166 112 246.5t319 80.5q89 0 167 -10q29 -6 78 -10l21 20v62q0 141 -58.5 203.5t-207.5 62.5q-143 0 -205 -58t-62 -147l-20 -20h-82l-21 20q0 132 100 219.5t290 87.5q113 0 190 -25t120 -75.5t61 -114.5t18 -153v-656l-21 -20h-61l-21 20l-20 103h-21 q-16 -22 -31.5 -38.5t-43.5 -37.5t-60.5 -34.5t-82.5 -23t-109 -9.5q-169 0 -259 81.5t-90 225.5zM184 287q0 -99 56.5 -152t189.5 -53q81 0 145.5 27.5t103.5 72.5t59 98.5t20 108.5v82l-21 21l-32 4l-35 6q-68 10 -158 10q-177 0 -252.5 -57t-75.5 -168zM205 1167 q0 91 42.5 138t121.5 47q40 0 74.5 -12.5t58 -31t45 -36.5t44 -30.5t44.5 -12.5q32 0 46.5 18t14.5 64l21 20h41l20 -20q0 -91 -42.5 -138t-121.5 -47q-40 0 -74.5 12.5t-58 31t-45 36.5t-44 30.5t-44.5 12.5q-32 0 -46.5 -18t-14.5 -64l-21 -20h-41z" />
<glyph unicode="&#xe4;" horiz-adv-x="983" d="M61 287q0 166 112 246.5t319 80.5q89 0 167 -10q29 -6 78 -10l21 20v62q0 141 -58.5 203.5t-207.5 62.5q-143 0 -205 -58t-62 -147l-20 -20h-82l-21 20q0 132 100 219.5t290 87.5q113 0 190 -25t120 -75.5t61 -114.5t18 -153v-656l-21 -20h-61l-21 20l-20 103h-21 q-16 -22 -31.5 -38.5t-43.5 -37.5t-60.5 -34.5t-82.5 -23t-109 -9.5q-169 0 -259 81.5t-90 225.5zM184 287q0 -99 56.5 -152t189.5 -53q81 0 145.5 27.5t103.5 72.5t59 98.5t20 108.5v82l-21 21l-32 4l-35 6q-68 10 -158 10q-177 0 -252.5 -57t-75.5 -168zM246 1208v123 l20 21h103l20 -21v-123l-20 -20h-103zM594 1208v123l20 21h103l20 -21v-123l-20 -20h-103z" />
<glyph unicode="&#xe5;" horiz-adv-x="983" d="M61 287q0 166 112 246.5t319 80.5q89 0 167 -10q29 -6 78 -10l21 20v62q0 141 -58.5 203.5t-207.5 62.5q-143 0 -205 -58t-62 -147l-20 -20h-82l-21 20q0 132 100 219.5t290 87.5q113 0 190 -25t120 -75.5t61 -114.5t18 -153v-656l-21 -20h-61l-21 20l-20 103h-21 q-16 -22 -31.5 -38.5t-43.5 -37.5t-60.5 -34.5t-82.5 -23t-109 -9.5q-169 0 -259 81.5t-90 225.5zM184 287q0 -99 56.5 -152t189.5 -53q81 0 145.5 27.5t103.5 72.5t59 98.5t20 108.5v82l-21 21l-32 4l-35 6q-68 10 -158 10q-177 0 -252.5 -57t-75.5 -168zM287 1290 q0 79 57 132t148 53t147.5 -53t56.5 -132t-56.5 -131.5t-147.5 -52.5t-148 52.5t-57 131.5zM389 1290q0 -47 28 -74.5t75 -27.5t74.5 27.5t27.5 74.5t-27.5 75t-74.5 28t-75 -28t-28 -75z" />
<glyph unicode="&#xe6;" horiz-adv-x="1699" d="M61 287q0 166 112 246.5t319 80.5q89 0 167 -10q29 -6 78 -10l21 20v62q0 141 -58.5 203.5t-207.5 62.5q-143 0 -205 -58t-62 -147l-20 -20h-82l-21 20q0 132 100 219.5t290 87.5q81 0 142.5 -13.5t100.5 -38t63 -50.5t42 -61h20q17 26 43 51.5t65.5 52t97 43t122.5 16.5 q211 0 330.5 -135.5t119.5 -355.5v-61l-20 -21h-717l-20 -20q0 -42 8 -86t30.5 -96.5t57 -92.5t95 -67t136.5 -27q219 0 287 205l21 20h81l21 -20q-6 -40 -22.5 -79.5t-49 -81.5t-76.5 -73.5t-112 -52t-150 -20.5q-73 0 -137.5 20t-109.5 52t-75 65.5t-46 66.5h-21 q-107 -204 -409 -204q-169 0 -259 81.5t-90 225.5zM184 287q0 -99 56.5 -152t189.5 -53q158 0 243 85t85 202v102l-21 21l-32 4l-35 6q-68 10 -158 10q-177 0 -252.5 -57t-75.5 -168zM881 594l20 -21h594l21 21q0 45 -10 91t-35 93t-61 83t-93.5 58.5t-128.5 22.5t-126 -23 t-88.5 -58t-55 -83t-29.5 -92.5t-8 -91.5z" />
<glyph unicode="&#xe7;" horiz-adv-x="1024" d="M61 512q0 135 35.5 238.5t100 166.5t149 95t186.5 32q182 0 297.5 -96t133.5 -252l-21 -20h-82l-20 20q-9 50 -29 91t-55 77.5t-92.5 57t-131.5 20.5q-159 0 -253.5 -110.5t-94.5 -319.5t94.5 -319.5t253.5 -110.5q74 0 131 20.5t92 57t55.5 78t29.5 90.5l20 20h82 l21 -20q-17 -141 -106 -229t-243 -119l-41 -21l-102 -102h21q39 20 71 20h10q52 0 87.5 -35t35.5 -108q0 -77 -55.5 -120.5t-148.5 -43.5q-62 0 -101.5 17.5t-83.5 64.5v20l21 21h20q28 -28 57.5 -34.5t86.5 -6.5q50 0 76 18.5t26 63.5t-26 63.5t-76 18.5h-11q-30 0 -71 -21 h-21l-20 21v20l123 123v21q-196 18 -313.5 150t-117.5 382z" />
<glyph unicode="&#xe8;" horiz-adv-x="1024" d="M61 512v41q0 220 120 355.5t331 135.5t331 -135.5t120 -355.5v-61l-21 -21h-737l-21 -20q0 -40 10 -86t36 -97t64 -91.5t100 -67.5t138 -27q219 0 287 205l21 20h82l20 -20q-6 -40 -22.5 -79.5t-49 -81.5t-76.5 -73.5t-112 -52t-150 -20.5q-119 0 -211 42.5t-148 116.5 t-84 168.5t-28 204.5zM184 594l21 -21h614l21 21q0 45 -10 91t-35 93t-61 83t-93.5 58.5t-128.5 22.5t-128.5 -22.5t-93.5 -58.5t-61 -83t-35 -93t-10 -91zM307 1372v41l21 21h61l41 -21l184 -205v-41l-20 -20h-21l-41 20z" />
<glyph unicode="&#xe9;" horiz-adv-x="1024" d="M61 512v41q0 220 120 355.5t331 135.5t331 -135.5t120 -355.5v-61l-21 -21h-737l-21 -20q0 -40 10 -86t36 -97t64 -91.5t100 -67.5t138 -27q219 0 287 205l21 20h82l20 -20q-6 -40 -22.5 -79.5t-49 -81.5t-76.5 -73.5t-112 -52t-150 -20.5q-119 0 -211 42.5t-148 116.5 t-84 168.5t-28 204.5zM184 594l21 -21h614l21 21q0 45 -10 91t-35 93t-61 83t-93.5 58.5t-128.5 22.5t-128.5 -22.5t-93.5 -58.5t-61 -83t-35 -93t-10 -91zM389 1167v41l184 205l41 21h62l20 -21v-41l-225 -205l-41 -20h-20z" />
<glyph unicode="&#xea;" horiz-adv-x="1024" d="M61 512v41q0 220 120 355.5t331 135.5t331 -135.5t120 -355.5v-61l-21 -21h-737l-21 -20q0 -40 10 -86t36 -97t64 -91.5t100 -67.5t138 -27q219 0 287 205l21 20h82l20 -20q-6 -40 -22.5 -79.5t-49 -81.5t-76.5 -73.5t-112 -52t-150 -20.5q-119 0 -211 42.5t-148 116.5 t-84 168.5t-28 204.5zM184 594l21 -21h614l21 21q0 45 -10 91t-35 93t-61 83t-93.5 58.5t-128.5 22.5t-128.5 -22.5t-93.5 -58.5t-61 -83t-35 -93t-10 -91zM225 1167v41l205 205l41 21h82l41 -21l205 -205v-41l-21 -20h-20l-41 20l-185 144h-40l-185 -144l-41 -20h-20z" />
<glyph unicode="&#xeb;" horiz-adv-x="1024" d="M61 512v41q0 220 120 355.5t331 135.5t331 -135.5t120 -355.5v-61l-21 -21h-737l-21 -20q0 -40 10 -86t36 -97t64 -91.5t100 -67.5t138 -27q219 0 287 205l21 20h82l20 -20q-6 -40 -22.5 -79.5t-49 -81.5t-76.5 -73.5t-112 -52t-150 -20.5q-119 0 -211 42.5t-148 116.5 t-84 168.5t-28 204.5zM184 594l21 -21h614l21 21q0 45 -10 91t-35 93t-61 83t-93.5 58.5t-128.5 22.5t-128.5 -22.5t-93.5 -58.5t-61 -83t-35 -93t-10 -91zM266 1208v123l21 21h102l21 -21v-123l-21 -20h-102zM614 1208v123l21 21h102l21 -21v-123l-21 -20h-102z" />
<glyph unicode="&#xec;" horiz-adv-x="368" d="M-41 1372v41l21 21h61l41 -21l184 -205v-41l-20 -20l-62 20zM123 20v984l20 20h82l21 -20v-984l-21 -20h-82z" />
<glyph unicode="&#xed;" horiz-adv-x="368" d="M102 1167v41l185 205l41 21h61l21 -21v-41l-226 -205l-41 -20h-20zM123 20v984l20 20h82l21 -20v-984l-21 -20h-82z" />
<glyph unicode="&#xee;" horiz-adv-x="368" d="M-102 1167v41l204 205l41 21h82l41 -21l205 -205v-41l-20 -20h-21l-41 20l-184 144h-41l-184 -144l-41 -20h-21zM123 20v984l20 20h82l21 -20v-984l-21 -20h-82z" />
<glyph unicode="&#xef;" horiz-adv-x="368" d="M-61 1208v123l20 21h102l21 -21v-123l-21 -20h-102zM123 20v984l20 20h82l21 -20v-984l-21 -20h-82zM287 1208v123l20 21h103l20 -21v-123l-20 -20h-103z" />
<glyph unicode="&#xf0;" horiz-adv-x="1064" d="M82 512q0 239 111 385.5t319 146.5t287 -122h20q0 37 -14 88.5t-53.5 115.5t-96.5 103h-20l-82 -82l-41 -21h-41l-20 21v41l81 82v20q-31 15 -91.5 28t-92.5 13l-20 21v20l20 21l41 20q102 0 225 -41h21l61 62l41 20h41l21 -20v-41l-62 -62v-20q133 -106 189.5 -293 t56.5 -486q0 -277 -115.5 -414.5t-335.5 -137.5q-210 0 -330 148t-120 384zM205 512q0 -207 91.5 -318.5t235.5 -111.5q157 0 242.5 108.5t85.5 321.5t-85.5 321.5t-242.5 108.5t-242 -108.5t-85 -321.5z" />
<glyph unicode="&#xf1;" horiz-adv-x="1064" d="M123 20v984l20 20h62l20 -20l21 -123h20q47 78 132.5 120.5t195.5 42.5q174 0 271.5 -104.5t97.5 -304.5v-615l-21 -20h-82l-20 20v615q0 151 -70.5 229t-196.5 78q-166 0 -246.5 -96.5t-80.5 -272.5v-553l-21 -20h-82zM266 1167q0 91 42.5 138t121.5 47q40 0 74.5 -12.5 t58 -31t45 -36.5t44 -30.5t44.5 -12.5q32 0 47 18t15 64l20 20h41l21 -20q0 -91 -42.5 -138t-121.5 -47q-40 0 -74.5 12.5t-58 31t-45 36.5t-44 30.5t-44.5 12.5q-32 0 -47 -18t-15 -64l-20 -20h-41z" />
<glyph unicode="&#xf2;" horiz-adv-x="1064" d="M61 512q0 254 131 393t340 139t340.5 -139t131.5 -393t-131.5 -393t-340.5 -139t-340 139t-131 393zM184 512q0 -198 96 -314t252 -116t252.5 116t96.5 314t-96.5 314t-252.5 116t-252 -116t-96 -314zM348 1372v41l21 21h61l41 -21l184 -205v-41l-20 -20h-21l-41 20z" />
<glyph unicode="&#xf3;" horiz-adv-x="1064" d="M61 512q0 254 131 393t340 139t340.5 -139t131.5 -393t-131.5 -393t-340.5 -139t-340 139t-131 393zM184 512q0 -198 96 -314t252 -116t252.5 116t96.5 314t-96.5 314t-252.5 116t-252 -116t-96 -314zM410 1167v41l184 205l41 21h61l21 -21v-41l-225 -205l-41 -20h-21z " />
<glyph unicode="&#xf4;" horiz-adv-x="1064" d="M61 512q0 254 131 393t340 139t340.5 -139t131.5 -393t-131.5 -393t-340.5 -139t-340 139t-131 393zM184 512q0 -198 96 -314t252 -116t252.5 116t96.5 314t-96.5 314t-252.5 116t-252 -116t-96 -314zM246 1167v41l205 205l41 21h81l41 -21l205 -205v-41l-20 -20h-21 l-41 20l-184 144h-41l-184 -144l-41 -20h-21z" />
<glyph unicode="&#xf5;" horiz-adv-x="1064" d="M61 512q0 254 131 393t340 139t340.5 -139t131.5 -393t-131.5 -393t-340.5 -139t-340 139t-131 393zM184 512q0 -198 96 -314t252 -116t252.5 116t96.5 314t-96.5 314t-252.5 116t-252 -116t-96 -314zM246 1167q0 91 42.5 138t121.5 47q40 0 74.5 -12.5t58 -31t45 -36.5 t44 -30.5t44.5 -12.5q32 0 46.5 18t14.5 64l21 20h41l20 -20q0 -91 -42.5 -138t-121.5 -47q-40 0 -74.5 12.5t-58 31t-45 36.5t-44 30.5t-44.5 12.5q-32 0 -46.5 -18t-14.5 -64l-21 -20h-41z" />
<glyph unicode="&#xf6;" horiz-adv-x="1064" d="M61 512q0 254 131 393t340 139t340.5 -139t131.5 -393t-131.5 -393t-340.5 -139t-340 139t-131 393zM184 512q0 -198 96 -314t252 -116t252.5 116t96.5 314t-96.5 314t-252.5 116t-252 -116t-96 -314zM287 1208v123l20 21h103l20 -21v-123l-20 -20h-103zM635 1208v123 l20 21h103l20 -21v-123l-20 -20h-103z" />
<glyph unicode="&#xf7;" horiz-adv-x="1228" d="M123 492v61l20 20h942l21 -20v-61l-21 -21h-942zM532 123v164l21 20h123l20 -20v-164l-20 -21h-123zM532 758v164l21 20h123l20 -20v-164l-20 -21h-123z" />
<glyph unicode="&#xf8;" horiz-adv-x="1064" d="M41 41v20l102 103v20q-82 126 -82 328q0 259 125 395.5t346 136.5q95 0 181.5 -31t146.5 -91h21l61 61l41 21h21l20 -21v-20l-102 -103v-20q34 -53 58 -139t24 -189q0 -258 -126 -395t-346 -137q-95 0 -181 31t-146 91h-21l-61 -61l-41 -21h-21zM184 512q0 -77 11.5 -146 t29.5 -100h21l532 553v21q-66 102 -246 102q-170 0 -259 -112.5t-89 -317.5zM287 184q78 -102 245 -102q170 0 259.5 112.5t89.5 317.5q0 77 -11.5 146t-29.5 100h-21l-532 -553v-21z" />
<glyph unicode="&#xf9;" horiz-adv-x="1044" d="M102 369v635l21 20h82l20 -20v-635q0 -148 65 -217.5t181 -69.5q166 0 247 96.5t81 272.5v553l20 20h82l21 -20v-984l-21 -20h-61l-21 20l-20 123h-21q-47 -78 -132 -120.5t-195 -42.5q-160 0 -254.5 98t-94.5 291zM328 1372v41l20 21h62l41 -21l184 -205v-41l-21 -20 h-20l-41 20z" />
<glyph unicode="&#xfa;" horiz-adv-x="1044" d="M102 369v635l21 20h82l20 -20v-635q0 -148 65 -217.5t181 -69.5q166 0 247 96.5t81 272.5v553l20 20h82l21 -20v-984l-21 -20h-61l-21 20l-20 123h-21q-47 -78 -132 -120.5t-195 -42.5q-160 0 -254.5 98t-94.5 291zM389 1167v41l184 205l41 21h62l20 -21v-41l-225 -205 l-41 -20h-20z" />
<glyph unicode="&#xfb;" horiz-adv-x="1044" d="M102 369v635l21 20h82l20 -20v-635q0 -148 65 -217.5t181 -69.5q166 0 247 96.5t81 272.5v553l20 20h82l21 -20v-984l-21 -20h-61l-21 20l-20 123h-21q-47 -78 -132 -120.5t-195 -42.5q-160 0 -254.5 98t-94.5 291zM225 1167v41l205 205l41 21h82l41 -21l205 -205v-41 l-21 -20h-20l-41 20l-185 144h-40l-185 -144l-41 -20h-20z" />
<glyph unicode="&#xfc;" horiz-adv-x="1044" d="M102 369v635l21 20h82l20 -20v-635q0 -148 65 -217.5t181 -69.5q166 0 247 96.5t81 272.5v553l20 20h82l21 -20v-984l-21 -20h-61l-21 20l-20 123h-21q-47 -78 -132 -120.5t-195 -42.5q-160 0 -254.5 98t-94.5 291zM266 1208v123l21 21h102l21 -21v-123l-21 -20h-102z M614 1208v123l21 21h102l21 -21v-123l-21 -20h-102z" />
<glyph unicode="&#xfd;" horiz-adv-x="962" d="M61 942v62l21 20h61l21 -20l307 -861h21l307 861l20 20h62l20 -20v-62l-328 -901q-20 -55 -34.5 -90.5t-34.5 -76t-39 -65.5t-45.5 -49.5t-57 -37.5t-70 -21t-87.5 -8h-41l-21 20v62l21 20h41q40 0 73.5 12.5t53 27.5t37 41.5t24.5 42t17 40.5v41zM389 1167v41l184 205 l41 21h62l20 -21v-41l-225 -205l-41 -20h-20z" />
<glyph unicode="&#xfe;" horiz-adv-x="1105" d="M123 -389v1802l20 21h82l21 -21v-532h20q33 69 116 116t212 47q208 0 319 -146.5t111 -385.5t-111 -385.5t-319 -146.5q-129 0 -212 47t-116 116h-20v-532l-21 -21h-82zM246 512q0 -213 85 -321.5t242 -108.5t242.5 108.5t85.5 321.5t-85.5 321.5t-242.5 108.5 t-242 -108.5t-85 -321.5z" />
<glyph unicode="&#xff;" horiz-adv-x="962" d="M61 942v62l21 20h61l21 -20l307 -861h21l307 861l20 20h62l20 -20v-62l-328 -901q-20 -55 -34.5 -90.5t-34.5 -76t-39 -65.5t-45.5 -49.5t-57 -37.5t-70 -21t-87.5 -8h-41l-21 20v62l21 20h41q40 0 73.5 12.5t53 27.5t37 41.5t24.5 42t17 40.5v41zM246 1208v123l20 21 h103l20 -21v-123l-20 -20h-103zM573 1208v123l21 21h102l21 -21v-123l-21 -20h-102z" />
<glyph unicode="&#x152;" horiz-adv-x="1986" d="M82 717q0 358 162 547.5t432 189.5q255 0 368 -143h21v102l20 21h820l20 -21v-61l-20 -21h-697l-20 -20v-512l20 -21h656l20 -20v-62l-20 -20h-656l-20 -21v-532l20 -21h697l20 -20v-62l-20 -20h-820l-20 20v103h-21q-113 -143 -368 -143q-270 0 -432 189.5t-162 547.5z M205 717q0 -296 122.5 -465.5t348.5 -169.5q173 0 271.5 71t117.5 175v778q-19 103 -118 174.5t-271 71.5q-226 0 -348.5 -169.5t-122.5 -465.5z" />
<glyph unicode="&#x153;" horiz-adv-x="1822" d="M61 512q0 259 125 395.5t346 136.5q143 0 241.5 -58t148.5 -146h20q104 204 369 204q211 0 330.5 -135.5t119.5 -355.5v-61l-20 -21h-717l-20 -20q0 -47 8 -93t30.5 -97.5t57.5 -89.5t94.5 -63.5t136.5 -25.5q219 0 287 205l20 20h82l21 -20q-6 -40 -22.5 -79.5 t-49 -81.5t-76.5 -73.5t-112 -52t-150 -20.5q-144 0 -233 51.5t-156 152.5h-20q-35 -84 -139 -144t-251 -60q-220 0 -345.5 137t-125.5 395zM184 512q0 -205 89 -317.5t259 -112.5q162 0 255.5 104.5t93.5 325.5t-93.5 325.5t-255.5 104.5q-170 0 -259 -112.5t-89 -317.5z M1004 594l20 -21h594l20 21q-11 119 -58.5 199t-115 114.5t-153.5 34.5q-144 0 -225.5 -89.5t-81.5 -258.5z" />
<glyph unicode="&#x178;" horiz-adv-x="1146" d="M61 1352v61l21 21h41l41 -21l389 -676h41l389 676l41 21h41l20 -21v-61l-450 -758v-574l-21 -20h-82l-20 20v574zM328 1618v123l20 20h103l20 -20v-123l-20 -21h-103zM676 1618v123l20 20h103l20 -20v-123l-20 -21h-103z" />
<glyph unicode="&#x2c6;" horiz-adv-x="1024" d="M225 1167v41l205 205l41 21h82l41 -21l205 -205v-41l-21 -20h-20l-41 20l-185 144h-40l-185 -144l-41 -20h-20z" />
<glyph unicode="&#x2dc;" horiz-adv-x="1024" d="M225 1167q0 91 42.5 138t121.5 47q40 0 74.5 -12.5t58 -31t45 -36.5t44 -30.5t44.5 -12.5q32 0 47 18t15 64l20 20h41l21 -20q0 -91 -42.5 -138t-121.5 -47q-40 0 -74.5 12.5t-58 31t-45 36.5t-44 30.5t-44.5 12.5q-32 0 -47 -18t-15 -64l-20 -20h-41z" />
<glyph unicode="&#x2000;" horiz-adv-x="921" />
<glyph unicode="&#x2001;" horiz-adv-x="1843" />
<glyph unicode="&#x2002;" horiz-adv-x="921" />
<glyph unicode="&#x2003;" horiz-adv-x="1843" />
<glyph unicode="&#x2004;" horiz-adv-x="614" />
<glyph unicode="&#x2005;" horiz-adv-x="460" />
<glyph unicode="&#x2006;" horiz-adv-x="307" />
<glyph unicode="&#x2007;" horiz-adv-x="307" />
<glyph unicode="&#x2008;" horiz-adv-x="230" />
<glyph unicode="&#x2009;" horiz-adv-x="368" />
<glyph unicode="&#x200a;" horiz-adv-x="102" />
<glyph unicode="&#x2010;" horiz-adv-x="798" d="M123 492v61l20 20h512l21 -20v-61l-21 -21h-512z" />
<glyph unicode="&#x2011;" horiz-adv-x="798" d="M123 492v61l20 20h512l21 -20v-61l-21 -21h-512z" />
<glyph unicode="&#x2012;" horiz-adv-x="798" d="M123 492v61l20 20h512l21 -20v-61l-21 -21h-512z" />
<glyph unicode="&#x2013;" horiz-adv-x="1269" d="M123 492v61l20 20h983l21 -20v-61l-21 -21h-983z" />
<glyph unicode="&#x2014;" horiz-adv-x="2293" d="M123 492v61l20 20h2007l21 -20v-61l-21 -21h-2007z" />
<glyph unicode="&#x2018;" horiz-adv-x="491" d="M143 1065v184l21 62l82 102l41 21h41v-21l-82 -123v-20l20 -21h21l20 -20v-164l-20 -21h-123z" />
<glyph unicode="&#x2019;" horiz-adv-x="491" d="M164 1044v21l82 123v20l-21 21h-20l-21 20v164l21 21h123l20 -21v-184l-20 -62l-82 -102l-41 -21h-41z" />
<glyph unicode="&#x201a;" horiz-adv-x="491" d="M143 -164l82 123v21l-20 20h-21l-20 20v164l20 21h123l21 -21v-184l-21 -61l-82 -103l-41 -20h-41v20z" />
<glyph unicode="&#x201c;" horiz-adv-x="819" d="M143 1065v184l21 62l82 102l41 21h41v-21l-82 -123v-20l20 -21h21l20 -20v-164l-20 -21h-123zM471 1065v184l21 62l81 102l41 21h41v-21l-82 -123v-20l21 -21h20l21 -20v-164l-21 -21h-122z" />
<glyph unicode="&#x201d;" horiz-adv-x="819" d="M164 1044v21l82 123v20l-21 21h-20l-21 20v164l21 21h123l20 -21v-184l-20 -62l-82 -102l-41 -21h-41zM492 1044v21l81 123v20l-20 21h-21l-20 20v164l20 21h123l21 -21v-184l-21 -62l-82 -102l-41 -21h-40z" />
<glyph unicode="&#x201e;" horiz-adv-x="819" d="M143 -164l82 123v21l-20 20h-21l-20 20v164l20 21h123l21 -21v-184l-21 -61l-82 -103l-41 -20h-41v20zM471 -164l82 123v21l-21 20h-20l-20 20v164l20 21h123l20 -21v-184l-20 -61l-82 -103l-41 -20h-41v20z" />
<glyph unicode="&#x2022;" horiz-adv-x="798" d="M246 512v20l143 144h21l143 -144v-20l-143 -143h-21z" />
<glyph unicode="&#x2026;" horiz-adv-x="1228" d="M164 20v164l20 21h123l21 -21v-164l-21 -20h-123zM532 20v164l21 21h123l20 -21v-164l-20 -20h-123zM901 20v164l21 21h122l21 -21v-164l-21 -20h-122z" />
<glyph unicode="&#x202f;" horiz-adv-x="368" />
<glyph unicode="&#x2039;" horiz-adv-x="819" d="M164 471v82l20 41l348 348l41 21h62l20 -21v-41l-368 -369v-40l368 -369v-41l-20 -21h-62l-41 21l-348 348z" />
<glyph unicode="&#x203a;" horiz-adv-x="819" d="M164 82v41l368 369v40l-368 369v41l20 21h62l41 -21l348 -348l20 -41v-82l-20 -41l-348 -348l-41 -21h-62z" />
<glyph unicode="&#x205f;" horiz-adv-x="460" />
<glyph unicode="&#x20ac;" horiz-adv-x="1413" d="M41 553v61l20 21h144l20 20v123l-20 21h-144l-20 20v62l20 20h144l20 21q8 69 26.5 134.5t61.5 140.5t103.5 129.5t159.5 91t223 36.5q104 0 191.5 -24.5t159 -75t118.5 -134.5t63 -196l-20 -20h-82l-21 20q-30 169 -132 248.5t-277 79.5q-88 0 -161.5 -25.5t-123 -67 t-85.5 -98.5t-55 -116t-26 -123l21 -21h532l21 -20v-62l-21 -20h-532l-21 -21v-123l21 -20h450l21 -21v-61l-21 -21h-450l-21 -20q9 -81 40.5 -155t84.5 -137t137.5 -100.5t188.5 -37.5q175 0 277 79.5t132 248.5l21 20h82l20 -20q-16 -112 -63 -196t-118.5 -134.5t-159 -75 t-191.5 -24.5q-117 0 -214 36t-159 91.5t-106.5 129t-65.5 141t-29 134.5l-20 20h-144z" />
<glyph unicode="&#x2122;" horiz-adv-x="1699" d="M61 1372v41l21 21h553l20 -21v-41l-20 -20h-205l-20 -21v-614l-21 -21h-61l-21 21v614l-20 21h-205zM799 717v696l20 21h82l21 -21l245 -573h21l246 573l20 21h82l20 -21v-696l-20 -21h-61l-21 21v471h-20l-205 -471l-21 -21h-61l-21 21l-204 471h-21v-471l-20 -21h-62z " />
<glyph unicode="&#xe000;" horiz-adv-x="1024" d="M0 0v1024h1024v-1024h-1024z" />
<glyph unicode="&#xfb01;" horiz-adv-x="1085" d="M61 942v62l21 20h164l20 20v82q0 108 66.5 167t179.5 59h143l21 -21v-61l-21 -21h-143q-123 0 -123 -123v-82l21 -20h532l21 -20v-984l-21 -20h-82l-20 20v881l-21 21h-409l-21 -21v-881l-20 -20h-82l-21 20v881l-20 21h-164zM840 1208v123l20 21h82l21 -21v-123l-21 -20 h-82z" />
<glyph unicode="&#xfb02;" horiz-adv-x="1085" d="M61 942v62l21 20h164l20 20v82q0 108 66.5 167t179.5 59h143l21 -21v-61l-21 -21h-143q-123 0 -123 -123v-82l21 -20h409l21 20v369l20 21h82l21 -21v-1393l-21 -20h-82l-20 20v881l-21 21h-409l-21 -21v-881l-20 -20h-82l-21 20v881l-20 21h-164z" />
<glyph unicode="&#xfb03;" horiz-adv-x="1658" d="M61 942v62l21 20h164l20 20v82q0 108 66.5 167t179.5 59h143l21 -21v-61l-21 -21h-143q-123 0 -123 -123v-82l21 -20h409l21 20v82q0 108 66 167t179 59h144l20 -21v-61l-20 -21h-144q-122 0 -122 -123v-82l20 -20h533l20 -20v-984l-20 -20h-82l-21 20v881l-20 21h-410 l-20 -21v-881l-21 -20h-82l-20 20v881l-21 21h-409l-21 -21v-881l-20 -20h-82l-21 20v881l-20 21h-164zM1413 1208v123l21 21h82l20 -21v-123l-20 -20h-82z" />
<glyph unicode="&#xfb04;" horiz-adv-x="1658" d="M61 942v62l21 20h164l20 20v82q0 108 66.5 167t179.5 59h143l21 -21v-61l-21 -21h-143q-123 0 -123 -123v-82l21 -20h409l21 20v82q0 108 66 167t179 59h144l20 -21v-61l-20 -21h-144q-122 0 -122 -123v-82l20 -20h410l20 20v369l21 21h82l20 -21v-1393l-20 -20h-82 l-21 20v881l-20 21h-410l-20 -21v-881l-21 -20h-82l-20 20v881l-21 21h-409l-21 -21v-881l-20 -20h-82l-21 20v881l-20 21h-164z" />
</font>
</defs>
</svg>
