<?xml version="1.0" standalone="no"?>
<!DOCTYPE svg PUBLIC "-//W3C//DTD SVG 1.1//EN" "http://www.w3.org/Graphics/SVG/1.1/DTD/svg11.dtd" >
<svg xmlns="http://www.w3.org/2000/svg">
<metadata></metadata>
<defs>
<font id="cposregregular" horiz-adv-x="1024" >
<font-face units-per-em="2048" ascent="1536" descent="-512" />
<missing-glyph horiz-adv-x="532" />
<glyph horiz-adv-x="0" />
<glyph horiz-adv-x="0" />
<glyph horiz-adv-x="682" />
<glyph unicode="&#xd;" horiz-adv-x="0" />
<glyph unicode=" "  horiz-adv-x="532" />
<glyph unicode="&#x09;" horiz-adv-x="532" />
<glyph unicode="&#xa0;" horiz-adv-x="532" />
<glyph unicode="!" horiz-adv-x="737" d="M246 20v205l20 21h205l21 -21v-205l-21 -20h-205zM266 901v512l21 21h164l20 -21v-512l-41 -471l-20 -20h-82l-21 20z" />
<glyph unicode="&#x22;" horiz-adv-x="942" d="M164 819v594l20 21h164l21 -21v-594l-21 -20h-164zM573 819v594l21 21h164l20 -21v-594l-20 -20h-164z" />
<glyph unicode="#" horiz-adv-x="1331" d="M61 430v123l21 20h205l20 21l62 246l-21 20h-164l-20 21v123l20 20h226l20 20l102 369l21 21h102l21 -21v-143l-62 -226l21 -20h246l20 20l103 369l20 21h102l21 -21v-143l-62 -226l21 -20h143l21 -20v-123l-21 -21h-205l-20 -20l-61 -246l20 -21h164l20 -20v-123 l-20 -20h-225l-21 -21l-102 -369l-21 -20h-102l-21 20v144l62 225l-21 21h-245l-21 -21l-102 -369l-21 -20h-102l-21 20v144l62 225l-21 21h-143zM492 594l20 -21h246l20 21l62 246l-21 20h-246l-20 -20z" />
<glyph unicode="$" horiz-adv-x="1228" d="M82 451l20 20h164l21 -20q0 -58 9.5 -102t33 -85t69.5 -66.5t113 -33.5l20 20v451l-20 20q-207 49 -308.5 146.5t-101.5 263.5q0 332 410 389l20 21v122l21 21h123l20 -21v-122l21 -21q180 -17 284.5 -137.5t104.5 -292.5l-21 -20h-163l-21 20q0 96 -47.5 162.5 t-136.5 83.5l-21 -21v-409l21 -21q67 -14 123 -33t115 -53.5t99.5 -79.5t66.5 -113t26 -151q0 -46 -11 -93t-41 -100.5t-76 -96t-124 -75.5t-178 -44l-21 -21v-123l-20 -20h-123l-21 20v123l-20 21q-226 30 -328 147t-102 324zM307 1065q0 -167 205 -205l20 21v368l-20 21 q-59 -8 -101 -29.5t-63.5 -51.5t-31 -60t-9.5 -64zM696 184l21 -20q110 17 167.5 75t57.5 150q0 182 -225 225l-21 -20v-410z" />
<glyph unicode="%" horiz-adv-x="1843" d="M82 1065q0 178 85.5 283.5t262.5 105.5t262.5 -105.5t85.5 -283.5t-85.5 -283.5t-262.5 -105.5t-262.5 105.5t-85.5 283.5zM266 1065q0 -115 37.5 -170t126.5 -55t126.5 55t37.5 170t-37.5 170t-126.5 55t-126.5 -55t-37.5 -170zM451 20v144l819 1249l20 21h82l21 -21 v-143l-820 -1250l-20 -20h-82zM1065 369q0 178 85.5 283.5t262.5 105.5t262.5 -105.5t85.5 -283.5t-85.5 -283.5t-262.5 -105.5t-262.5 105.5t-85.5 283.5zM1249 369q0 -115 37.5 -170.5t126.5 -55.5t126.5 55.5t37.5 170.5t-37.5 170t-126.5 55t-126.5 -55t-37.5 -170z" />
<glyph unicode="&#x26;" horiz-adv-x="1536" d="M164 410q0 82 21 146.5t62 112.5t89 82t115 68v21q-58 58 -90.5 123t-32.5 163q0 57 21 112t62.5 105t115.5 80.5t169 30.5t165.5 -27t109 -73.5t56 -98t17.5 -108.5q0 -226 -245 -348v-21l307 -307h20q41 57 51.5 123t10.5 205l20 20h164l21 -20q0 -77 -2.5 -119.5 t-13.5 -104.5t-37 -121t-70 -126v-21l143 -143v-144l-20 -20h-82l-41 20l-123 123h-21q-100 -83 -206 -123t-265 -40q-238 0 -364.5 119t-126.5 311zM369 410q0 -119 79 -182.5t207 -63.5q205 0 328 123v20l-389 389h-21q-118 -59 -161 -124t-43 -162zM532 1126 q0 -39 16 -73.5t36 -57t71 -73.5h21q164 78 164 204q0 144 -144 144q-84 0 -124 -44.5t-40 -99.5z" />
<glyph unicode="'" horiz-adv-x="532" d="M164 819v594l20 21h164l21 -21v-594l-21 -20h-164z" />
<glyph unicode="(" horiz-adv-x="860" d="M164 512q0 133 1 201t21.5 151.5t36.5 120t80 118t114.5 133t176.5 177.5l41 21h41l20 -21v-143l-84.5 -84.5t-67 -70.5t-55.5 -63t-40 -57.5t-32 -58t-20.5 -60t-15.5 -69t-7 -80.5t-5 -98v-117q0 -89 0.5 -142.5t7.5 -113.5t13 -91.5t27 -78t39 -72.5t59.5 -74.5 t77.5 -84t103 -101.5v-143l-20 -21h-41l-41 21q-126 126 -176.5 177.5t-114.5 133t-80 118t-36.5 120t-21.5 151.5t-1 201z" />
<glyph unicode=")" horiz-adv-x="860" d="M164 -246q94 94 132.5 133.5t87.5 103.5t61 96.5t28.5 104.5t17.5 136.5t1 183.5q0 171 -4.5 250.5t-45.5 168t-84 136.5t-169 177q-16 17 -25 26v143l20 21h41l41 -21q126 -126 176.5 -177.5t114.5 -133t80 -118t36.5 -120t21.5 -151.5t1 -201t-1 -201t-21.5 -151.5 t-36.5 -120t-80 -118t-114.5 -133t-176.5 -177.5l-41 -21h-41l-20 21v143z" />
<glyph unicode="*" horiz-adv-x="1208" d="M164 983v21l20 20h328v20l-225 226v20l20 21h21l225 -226h20v328l21 21h20l21 -21v-328h20l226 226h20l21 -21v-20l-226 -226v-20h328l20 -20v-21l-20 -20h-328v-21l226 -225v-21l-21 -20h-20l-226 225h-20v-328l-21 -20h-20l-21 20v328h-20l-225 -225h-21l-20 20v21 l225 225v21h-328z" />
<glyph unicode="+" horiz-adv-x="1208" d="M123 451v143l20 20h349l20 21v348l20 21h144l20 -21v-348l21 -21h348l20 -20v-143l-20 -21h-348l-21 -20v-349l-20 -20h-144l-20 20v349l-20 20h-349z" />
<glyph unicode="," horiz-adv-x="573" d="M143 -225l123 184v21l-20 20h-62l-20 20v205l20 21h205l21 -21v-225l-21 -61l-123 -164l-41 -21h-82v21z" />
<glyph unicode="-" horiz-adv-x="839" d="M123 451v143l20 20h553l21 -20v-143l-21 -21h-553z" />
<glyph unicode="." horiz-adv-x="573" d="M164 20v205l20 21h205l21 -21v-205l-21 -20h-205z" />
<glyph unicode="/" horiz-adv-x="1044" d="M82 20v144l737 1249l21 21h102l21 -21v-143l-738 -1250l-20 -20h-103z" />
<glyph unicode="0" horiz-adv-x="1187" d="M82 717q0 135 18 245.5t51.5 190.5t79 138.5t103.5 94t122 52t138 16.5t138 -16.5t122 -52t103.5 -94t79 -138.5t51.5 -190.5t18 -245.5t-18 -245.5t-51.5 -190.5t-79 -138.5t-103.5 -94t-122 -52t-138 -16.5t-138 16.5t-122 52t-103.5 94t-79 138.5t-51.5 190.5 t-18 245.5zM287 717q0 -150 21.5 -258.5t63 -172t96.5 -93t126 -29.5t126 29.5t96.5 93t63 172t21.5 258.5t-21.5 258.5t-63 172t-96.5 93t-126 29.5t-126 -29.5t-96.5 -93t-63 -172t-21.5 -258.5z" />
<glyph unicode="1" horiz-adv-x="778" d="M82 942v164l307 307l41 21h164l20 -21v-1393l-20 -20h-164l-20 20v1147h-21l-246 -245h-41z" />
<glyph unicode="2" horiz-adv-x="1126" d="M82 20v164l20 41l410 328q162 131 224.5 224.5t62.5 226.5q0 56 -12.5 101.5t-40 83.5t-77 59.5t-116.5 21.5q-266 0 -266 -266l-21 -21h-164l-20 21q0 205 123.5 327.5t347.5 122.5q95 0 172.5 -25.5t128.5 -67.5t85.5 -98.5t49.5 -116t15 -122.5q0 -97 -21.5 -177 t-67.5 -149t-100.5 -124t-138.5 -123l-307 -246v-21h655l20 -20v-144l-20 -20h-922z" />
<glyph unicode="3" horiz-adv-x="1126" d="M61 389l21 21h164l20 -21q0 -88 68.5 -156.5t197.5 -68.5q151 0 229.5 81.5t78.5 225.5q0 139 -71 213t-196 74q-51 0 -120 -31q-23 -15 -43 -31h-62l-20 21v143l389 369v20h-574l-20 21v143l20 21h799l21 -21v-164l-21 -41l-307 -286v-21q4 2 20 2h21q65 0 126.5 -23.5 t117.5 -72t90 -135.5t34 -201q0 -227 -140.5 -359t-371.5 -132q-211 0 -341 118.5t-130 290.5z" />
<glyph unicode="4" horiz-adv-x="1126" d="M41 430v164l20 41l656 778l41 21h184l21 -21v-1393l-21 -20h-164l-20 20v369l-21 21h-676zM266 594h471l21 20v553h-21l-471 -553v-20z" />
<glyph unicode="5" horiz-adv-x="1187" d="M123 389l20 21h164l21 -21q8 -43 16.5 -72t27.5 -60.5t45.5 -50t71.5 -30.5t105 -12q287 0 287 328q0 148 -61 227.5t-206 79.5q-129 0 -211 -82q-38 -38 -55 -82l-41 -21l-143 21l-21 20l41 758l21 21h799l20 -21v-143l-20 -21h-615l-20 -20l-21 -369h21q21 35 65 62 q92 61 221 61q111 0 196 -38.5t135 -105.5t74.5 -149.5t24.5 -177.5q0 -270 -127.5 -401t-363.5 -131q-221 0 -337 108t-134 301z" />
<glyph unicode="6" horiz-adv-x="1167" d="M102 696q0 169 24.5 298.5t68.5 216t111 141.5t147.5 78.5t181.5 23.5q188 0 300.5 -89t129.5 -259l-21 -21h-163l-21 21q-17 90 -75 127t-171 37q-59 0 -106 -19.5t-76.5 -47t-50.5 -71.5t-31 -79t-15.5 -84.5t-6 -72t-0.5 -56.5h20q28 31 66 51q96 51 221 51 q213 0 331.5 -126.5t118.5 -344.5q0 -227 -128 -359t-343 -132q-95 0 -170.5 21t-141 72t-108.5 132t-67.5 204.5t-24.5 286.5zM328 471q0 -147 76.5 -227t189.5 -80q141 0 214 73t73 214q0 148 -61 227.5t-206 79.5q-141 0 -213.5 -73t-72.5 -214z" />
<glyph unicode="7" horiz-adv-x="1044" d="M82 1270v143l20 21h861l20 -21v-164l-594 -1229l-20 -20h-103l-20 20v164l512 1045v20h-656z" />
<glyph unicode="8" horiz-adv-x="1146" d="M82 410q0 73 19.5 134t53 102t65 67t67.5 45v20q-164 108 -164 287q0 78 28 147.5t82 124t141.5 86t198.5 31.5t198.5 -31.5t142 -86t82.5 -124t28 -147.5q0 -179 -164 -287v-20q36 -19 67.5 -45t65 -67t53 -102t19.5 -134q0 -85 -31.5 -161.5t-91 -137t-155 -96 t-214.5 -35.5t-214.5 35.5t-154.5 96t-90.5 137t-31.5 161.5zM287 410q0 -103 71.5 -174.5t214.5 -71.5t215 72t72 174q0 115 -71 190.5t-216 75.5t-215.5 -75.5t-70.5 -190.5zM328 1065q0 -97 63.5 -161t181.5 -64t182 64t64 161q0 88 -58.5 146.5t-187.5 58.5t-187 -58.5 t-58 -146.5z" />
<glyph unicode="9" horiz-adv-x="1167" d="M82 983q0 222 131.5 346.5t339.5 124.5q128 0 219.5 -34.5t159 -113.5t100.5 -215t33 -333q0 -213 -33.5 -363t-102 -241t-166 -132.5t-231.5 -41.5q-173 0 -282.5 90.5t-126.5 257.5l20 20h164l21 -20q17 -89 72.5 -126.5t152.5 -37.5q59 0 106 19.5t76.5 47t51 72.5 t31.5 81t15.5 88t6 77.5t0.5 64.5h-21q-34 -34 -67 -51q-89 -51 -220 -51q-202 0 -326 128t-124 343zM287 983q0 -139 70.5 -213t195.5 -74q141 0 214 73t73 214q0 147 -78 217t-209 70q-125 0 -195.5 -74t-70.5 -213z" />
<glyph unicode=":" horiz-adv-x="573" d="M164 20v205l20 21h205l21 -21v-205l-21 -20h-205zM164 799v205l20 20h205l21 -20v-205l-21 -21h-205z" />
<glyph unicode=";" horiz-adv-x="573" d="M143 -225l123 184v21l-20 20h-62l-20 20v205l20 21h205l21 -21v-225l-21 -61l-123 -164l-41 -21h-82v21zM164 799v205l20 20h205l21 -20v-205l-21 -21h-205z" />
<glyph unicode="&#x3c;" horiz-adv-x="1187" d="M143 451v122l21 41l799 410h41l20 -20v-123l-20 -41l-635 -308v-40l635 -308l20 -41v-123l-20 -20h-41l-799 410z" />
<glyph unicode="=" horiz-adv-x="1228" d="M164 246v143l20 21h860l21 -21v-143l-21 -21h-860zM164 635v143l20 21h860l21 -21v-143l-21 -21h-860z" />
<glyph unicode="&#x3e;" horiz-adv-x="1187" d="M164 20v123l20 41l635 308v40l-635 308l-20 41v123l20 20h41l799 -410l20 -41v-122l-20 -41l-799 -410h-41z" />
<glyph unicode="?" horiz-adv-x="1228" d="M164 1004q0 208 114 329t336 121q204 0 327.5 -103.5t123.5 -285.5q0 -60 -10.5 -110t-26 -85t-45 -72t-54.5 -60.5t-69 -61.5q-53 -44 -78.5 -68.5t-48.5 -56t-30 -63.5t-7 -78l-20 -21h-164l-20 21q0 122 35 196.5t128 151.5q7 6 38 32.5t37.5 32.5t30.5 28t30 30.5 t22.5 29t21 34t13 34.5t10.5 41.5t2 44.5q0 88 -58.5 146.5t-187.5 58.5q-133 0 -189 -67.5t-56 -198.5l-21 -21h-164zM471 20v205l21 21h204l21 -21v-205l-21 -20h-204z" />
<glyph unicode="@" horiz-adv-x="1884" d="M123 512q0 244 101 435t288 298t430 107q241 0 428 -107t289 -298t102 -435q0 -237 -93.5 -354t-254.5 -117q-145 0 -225 123h-21q-30 -30 -51 -47t-74.5 -36.5t-119.5 -19.5q-78 0 -147.5 28t-124 82.5t-86.5 142t-32 198.5q0 110 31.5 198.5t84.5 142t117.5 82 t135.5 28.5q97 0 156 -41q21 -13 49 -41h20v41l21 20h164l20 -20v-594q0 -73 25.5 -98t77.5 -25q74 0 98 70.5t24 236.5q0 107 -22 202.5t-70.5 179t-119 144t-173.5 95t-229 34.5q-150 0 -269 -53t-193 -144t-113 -208t-39 -250q0 -112 24 -210t74 -180t122 -141 t172.5 -91.5t221.5 -32.5q103 0 189 24t139 58h41l20 -21v-143q-62 -48 -164.5 -75.5t-224.5 -27.5q-243 0 -430 107t-288 298t-101 435zM737 512q0 -146 53 -206t152 -60q96 0 140 58.5t44 207.5t-44 207.5t-140 58.5q-99 0 -152 -60t-53 -206z" />
<glyph unicode="A" horiz-adv-x="1290" d="M41 20v144l491 1249l21 21h184l21 -21l491 -1249v-144l-20 -20h-123l-21 20l-122 308l-41 20h-553l-41 -20l-123 -308l-21 -20h-123zM410 553l20 -21h430l21 21l-226 573h-20z" />
<glyph unicode="B" horiz-adv-x="1310" d="M164 20v1393l20 21h574q69 0 130.5 -12.5t117 -42t95.5 -74t63.5 -111t23.5 -150.5q0 -106 -51 -180t-133 -106v-21q100 -33 162.5 -115.5t62.5 -211.5q0 -89 -23.5 -160t-63.5 -117t-95.5 -76.5t-116.5 -43.5t-131 -13h-615zM369 205l20 -21h389q126 0 186 53t60 173 q0 135 -66 190t-221 55h-348l-20 -20v-430zM369 860l20 -20h348q130 0 188 43t58 161t-61.5 161.5t-204.5 43.5h-328l-20 -20v-369z" />
<glyph unicode="C" horiz-adv-x="1413" d="M82 717q0 217 78 382.5t232 260t366 94.5q240 0 389.5 -119t183.5 -311l-20 -20h-164l-21 20q-32 114 -125.5 180t-242.5 66q-224 0 -347.5 -150.5t-123.5 -402.5t123.5 -402.5t347.5 -150.5q287 0 368 266l21 21h164l20 -21q-17 -95 -59 -174.5t-111 -142t-172 -98 t-231 -35.5q-212 0 -366 94.5t-232 260t-78 382.5z" />
<glyph unicode="D" horiz-adv-x="1372" d="M164 20v1393l20 21h430q151 0 266.5 -33.5t192.5 -94t126 -151t70 -197.5t21 -241t-21 -241t-70 -197.5t-126 -151t-192.5 -94t-266.5 -33.5h-430zM369 205l20 -21h205q143 0 239.5 33t151.5 103t77.5 165t22.5 232t-22.5 231.5t-77.5 164.5t-151.5 103t-239.5 33h-205 l-20 -20v-1024z" />
<glyph unicode="E" horiz-adv-x="1249" d="M164 20v1393l20 21h922l20 -21v-143l-20 -21h-717l-20 -20v-389l20 -21h676l20 -20v-144l-20 -20h-676l-20 -21v-409l20 -21h717l20 -20v-144l-20 -20h-922z" />
<glyph unicode="F" horiz-adv-x="1167" d="M164 20v1393l20 21h881l20 -21v-143l-20 -21h-676l-20 -20v-410l20 -20h635l20 -21v-143l-20 -21h-635l-20 -20v-574l-21 -20h-164z" />
<glyph unicode="G" horiz-adv-x="1474" d="M82 717q0 217 78 382.5t232 260t366 94.5q113 0 207 -25.5t158 -67t113 -98.5t75.5 -116t40.5 -123l-21 -20h-164l-20 20q-32 115 -129 180.5t-260 65.5q-224 0 -347.5 -150.5t-123.5 -402.5q0 -251 119 -402t331 -151q111 0 193 31.5t128 87t67.5 122.5t21.5 148l-21 20 h-409l-21 21v143l21 21h614l21 -21v-717l-21 -20h-123l-20 20l-21 123h-20q-82 -82 -179 -122.5t-231 -40.5q-201 0 -350.5 94.5t-227 260.5t-77.5 382z" />
<glyph unicode="H" horiz-adv-x="1454" d="M164 20v1393l20 21h164l21 -21v-573l20 -21h676l20 21v573l21 21h164l20 -21v-1393l-20 -20h-164l-21 20v594l-20 21h-676l-20 -21v-594l-21 -20h-164z" />
<glyph unicode="I" horiz-adv-x="532" d="M164 20v1393l20 21h164l21 -21v-1393l-21 -20h-164z" />
<glyph unicode="J" horiz-adv-x="1044" d="M41 369v41l20 20h164l21 -20v-41q0 -205 205 -205q114 0 169.5 52.5t55.5 172.5v1024l20 21h164l21 -21v-1024q0 -68 -15 -128t-48 -112t-82.5 -89.5t-122 -58.5t-162.5 -21q-99 0 -175.5 27.5t-119.5 68.5t-70.5 96t-36 102t-8.5 95z" />
<glyph unicode="K" horiz-adv-x="1269" d="M164 20v1393l20 21h164l21 -21v-676h20l676 676l41 21h61l21 -21v-143l-451 -451v-20l492 -635v-144l-21 -20h-82l-41 20l-491 635h-21l-184 -184l-20 -41v-410l-21 -20h-164z" />
<glyph unicode="L" horiz-adv-x="1105" d="M164 20v1393l20 21h164l21 -21v-1208l20 -21h676l20 -20v-144l-20 -20h-881z" />
<glyph unicode="M" horiz-adv-x="1822" d="M164 20v1393l20 21h226l20 -21l471 -1147h21l471 1147l20 21h225l21 -21v-1393l-21 -20h-163l-21 20v984h-20l-410 -984l-20 -20h-185l-20 20l-410 984h-20v-984l-21 -20h-164z" />
<glyph unicode="N" horiz-adv-x="1495" d="M164 20v1393l20 21h185l41 -21l696 -1065h20v1065l21 21h164l20 -21v-1393l-20 -20h-185l-41 20l-696 1065h-20v-1065l-21 -20h-164z" />
<glyph unicode="O" horiz-adv-x="1515" d="M82 717q0 217 78 382.5t232 260t366 94.5t366 -94.5t232 -260t78 -382.5t-78 -382.5t-232 -260t-366 -94.5t-366 94.5t-232 260t-78 382.5zM287 717q0 -252 123.5 -402.5t347.5 -150.5t347.5 150.5t123.5 402.5t-123.5 402.5t-347.5 150.5t-347.5 -150.5t-123.5 -402.5z " />
<glyph unicode="P" horiz-adv-x="1331" d="M164 20v1393l20 21h635q223 0 347 -100.5t124 -309.5q0 -105 -35.5 -184.5t-100 -128.5t-148.5 -73t-187 -24h-430l-20 -20v-574l-21 -20h-164zM369 819l20 -20h430q142 0 204 51.5t62 173.5t-62 173.5t-204 51.5h-430l-20 -20v-410z" />
<glyph unicode="Q" horiz-adv-x="1515" d="M82 717q0 217 78 382.5t232 260t366 94.5t366 -94.5t232 -260t78 -382.5q0 -161 -30 -269t-93 -202v-21l61 -61v-144l-20 -20h-103l-82 82h-20q-168 -102 -389 -102q-212 0 -366 94.5t-232 260t-78 382.5zM287 717q0 -252 123.5 -402.5t347.5 -150.5q155 0 246 61v21 l-144 143l-41 21h-164l-20 20v123l20 20h287l41 -20l164 -164h20q62 124 62 328q0 252 -123.5 402.5t-347.5 150.5t-347.5 -150.5t-123.5 -402.5z" />
<glyph unicode="R" horiz-adv-x="1372" d="M164 20v1393l20 21h635q223 0 347 -100.5t124 -309.5q0 -164 -81 -260.5t-226 -128.5v-21l287 -450v-144l-21 -20h-82l-41 20l-368 574l-41 20h-328l-20 -20v-574l-21 -20h-164zM369 819l20 -20h430q142 0 204 51.5t62 173.5t-62 173.5t-204 51.5h-430l-20 -20v-410z" />
<glyph unicode="S" horiz-adv-x="1290" d="M82 451l20 20h164l21 -20q0 -150 98.5 -218.5t290.5 -68.5q149 0 238.5 54.5t89.5 170.5q0 56 -16.5 95.5t-44 66t-82.5 46t-113 32t-154 26.5q-471 67 -471 410q0 58 17 112t56.5 105t97.5 89t145.5 60.5t195.5 22.5q118 0 213 -24.5t167.5 -75t112 -134.5t39.5 -196 l-20 -20h-164l-20 20q0 128 -78 187t-271 59q-138 0 -212 -55.5t-74 -149.5q0 -118 82.5 -167t306.5 -79q92 -14 162 -34t134 -53t105.5 -78.5t65.5 -112.5t24 -152q0 -86 -32.5 -158.5t-98 -129.5t-173.5 -89t-249 -32q-265 0 -419 123t-154 348z" />
<glyph unicode="T" horiz-adv-x="1228" d="M41 1270v143l20 21h1106l21 -21v-143l-21 -21h-430l-20 -20v-1209l-21 -20h-164l-20 20v1209l-20 20h-431z" />
<glyph unicode="U" horiz-adv-x="1433" d="M164 512v901l20 21h164l21 -21v-901q0 -162 85.5 -255t262.5 -93t262.5 93t85.5 255v901l20 21h164l21 -21v-901q0 -247 -146.5 -389.5t-406.5 -142.5t-406.5 142.5t-146.5 389.5z" />
<glyph unicode="V" horiz-adv-x="1290" d="M61 1270v143l21 21h123l20 -21l410 -1126h20l410 1126l20 21h123l21 -21v-143l-471 -1250l-21 -20h-184l-21 20z" />
<glyph unicode="W" horiz-adv-x="1904" d="M82 1270v143l20 21h123l21 -21l266 -1044h20l308 1044l20 21h184l21 -21l307 -1044h21l266 1044l20 21h123l21 -21v-143l-328 -1250l-20 -20h-185l-20 20l-307 1086h-21l-307 -1086l-21 -20h-184l-20 20z" />
<glyph unicode="X" horiz-adv-x="1331" d="M82 20v144l450 573v21l-430 512v143l21 21h82l41 -21l409 -512h21l409 512l41 21h82l21 -21v-143l-430 -512v-21l450 -573v-144l-20 -20h-82l-41 20l-430 574h-21l-430 -574l-41 -20h-82z" />
<glyph unicode="Y" horiz-adv-x="1187" d="M61 1270v143l21 21h82l41 -21l368 -614h41l369 614l41 21h82l20 -21v-143l-430 -697v-553l-20 -20h-164l-20 20v553z" />
<glyph unicode="Z" horiz-adv-x="1228" d="M102 20v164l21 41l717 1004v20h-697l-20 21v143l20 21h922l20 -21v-164l-20 -41l-717 -1003v-21h758l20 -20v-144l-20 -20h-983z" />
<glyph unicode="[" horiz-adv-x="757" d="M164 -389v1802l20 21h389l21 -21v-143l-21 -21h-184l-20 -20v-1434l20 -20h184l21 -21v-143l-21 -21h-389z" />
<glyph unicode="\" horiz-adv-x="1044" d="M82 1270v143l20 21h103l20 -21l738 -1249v-144l-21 -20h-102l-21 20z" />
<glyph unicode="]" horiz-adv-x="757" d="M164 -246l20 21h185l20 20v1434l-20 20h-185l-20 21v143l20 21h389l21 -21v-1802l-21 -21h-389l-20 21v143z" />
<glyph unicode="^" horiz-adv-x="1187" d="M143 492v143l349 778l20 21h164l20 -21l348 -778v-143l-20 -21h-82l-41 21l-287 675h-41l-286 -675l-41 -21h-82z" />
<glyph unicode="_" horiz-adv-x="1187" d="M82 -20l20 20h983l21 -20v-144l-21 -20h-983l-20 20v144z" />
<glyph unicode="`" d="M205 1372v41l20 21h144l41 -21l184 -205v-41l-21 -20h-102l-41 20z" />
<glyph unicode="a" d="M61 307q0 163 121 245.5t330 82.5q76 0 131 -10q21 -7 53 -11l21 21v41q0 106 -46.5 145t-158.5 39q-108 0 -156.5 -30t-48.5 -93l-20 -20h-164l-21 20q0 57 21.5 109t67.5 97.5t128.5 73t192.5 27.5q225 0 317.5 -107.5t92.5 -342.5v-574l-21 -20h-143l-21 20l-20 82 h-21q-27 -34 -67 -61q-92 -61 -219 -61q-170 0 -259.5 85.5t-89.5 241.5zM266 307q0 -76 45 -109.5t140 -33.5q122 0 194 56t72 149v61l-21 21l-43 10q-52 10 -121 10q-266 0 -266 -164z" />
<glyph unicode="b" horiz-adv-x="1126" d="M123 20v1393l20 21h164l21 -21v-491h20q22 28 64 61q85 61 202 61q203 0 327 -144t124 -388q0 -232 -125.5 -382t-325.5 -150q-117 0 -202 61q-42 33 -64 61h-20l-21 -82l-20 -20h-144zM328 512q0 -348 266 -348q125 0 195.5 89.5t70.5 258.5t-70.5 258.5t-195.5 89.5 q-266 0 -266 -348z" />
<glyph unicode="c" horiz-adv-x="1064" d="M61 512q0 246 132 389t360 143q204 0 318 -99t133 -249l-21 -20h-164l-20 20q-46 164 -246 164q-141 0 -214 -88t-73 -260t73 -260t214 -88q200 0 246 164l20 20h164l21 -20q-19 -150 -133 -249t-318 -99q-228 0 -360 143t-132 389z" />
<glyph unicode="d" horiz-adv-x="1126" d="M61 512q0 154 52 273.5t155.5 189t243.5 69.5q118 0 203 -61q39 -31 63 -61h21v491l20 21h164l21 -21v-1393l-21 -20h-143l-21 20l-20 82h-21q-24 -30 -63 -61q-85 -61 -203 -61q-140 0 -243.5 69.5t-155.5 189t-52 273.5zM266 512q0 -169 70.5 -258.5t195.5 -89.5 q267 0 267 348t-267 348q-125 0 -195.5 -89.5t-70.5 -258.5z" />
<glyph unicode="e" horiz-adv-x="1064" d="M61 512q0 110 28 204.5t84 168.5t148 116.5t211 42.5t211.5 -42.5t148 -116.5t84 -168.5t28.5 -204.5v-61l-21 -21h-676l-20 -20q0 -14 3 -32.5t11 -49t27 -57.5t46.5 -52t74 -40t104.5 -15q72 0 123.5 26t81.5 97l20 20h164l21 -20q-18 -131 -126 -219t-284 -88 q-238 0 -365 146.5t-127 385.5zM287 614l20 -20h451l20 20q0 24 -4 49.5t-19 63t-40 65t-72.5 48t-110.5 20.5t-110.5 -20.5t-72.5 -48t-40 -65t-18.5 -63t-3.5 -49.5z" />
<glyph unicode="f" horiz-adv-x="757" d="M61 860v144l21 20h143l21 20v82q0 89 42.5 151t105.5 89t138 27h164l21 -21v-143l-21 -21h-164q-35 0 -58 -19t-23 -63v-82l20 -20h205l20 -20v-144l-20 -20h-205l-20 -21v-799l-21 -20h-164l-20 20v799l-21 21h-143z" />
<glyph unicode="g" horiz-adv-x="1126" d="M61 512q0 154 52 273.5t155.5 189t243.5 69.5q118 0 203 -61q39 -31 63 -61h21l20 82l21 20h143l21 -20v-881q0 -119 -25.5 -214.5t-69.5 -158t-105 -103.5t-128.5 -59t-143.5 -18q-179 0 -285 79.5t-124 207.5l20 20h164l21 -20q30 -59 76 -81t128 -22q139 0 203 86.5 t64 261.5h-21q-24 -30 -63 -61q-85 -61 -203 -61q-140 0 -243.5 69.5t-155.5 189t-52 273.5zM266 512q0 -169 70.5 -258.5t195.5 -89.5q267 0 267 348t-267 348q-125 0 -195.5 -89.5t-70.5 -258.5z" />
<glyph unicode="h" horiz-adv-x="1126" d="M123 20v1393l20 21h164l21 -21v-491h20q22 28 64 61q85 61 202 61q89 0 158 -23.5t112 -63t70.5 -96t38.5 -116.5t11 -131v-594l-21 -20h-164l-20 20v594q0 246 -205 246q-130 0 -198 -75.5t-68 -252.5v-512l-21 -20h-164z" />
<glyph unicode="i" horiz-adv-x="450" d="M123 20v984l20 20h164l21 -20v-984l-21 -20h-164zM123 1208v164l20 21h164l21 -21v-164l-21 -20h-164z" />
<glyph unicode="j" horiz-adv-x="450" d="M-82 -205l21 21h102q35 0 58.5 19t23.5 63v1106l20 20h164l21 -20v-1106q0 -67 -24.5 -119.5t-65.5 -84t-91.5 -47.5t-105.5 -16h-102l-21 21v143zM123 1208v164l20 21h164l21 -21v-164l-21 -20h-164z" />
<glyph unicode="k" d="M123 20v1393l20 21h164l21 -21v-881h20l471 472l41 20h62l20 -20v-144l-287 -287v-20l308 -389v-144l-21 -20h-82l-41 20l-307 390h-20l-144 -144l-20 -41v-205l-21 -20h-164z" />
<glyph unicode="l" horiz-adv-x="450" d="M123 20v1393l20 21h164l21 -21v-1393l-21 -20h-164z" />
<glyph unicode="m" horiz-adv-x="1658" d="M123 20v984l20 20h144l20 -20l21 -82h20q79 122 266 122q58 0 102.5 -12t77 -38t48 -43t39.5 -50h20q110 143 307 143q84 0 146.5 -21.5t100.5 -57.5t61 -90t31.5 -111t8.5 -129v-615l-20 -20h-164l-20 20v615q0 52 -6 87.5t-24.5 69.5t-57 51t-97.5 17 q-109 0 -167 -70.5t-58 -195.5v-574l-20 -20h-164l-21 20v615q0 41 -3.5 70.5t-14.5 60.5t-30.5 50t-53.5 31.5t-82 12.5q-42 0 -79.5 -13.5t-71.5 -42.5t-54 -83t-20 -127v-574l-21 -20h-164z" />
<glyph unicode="n" horiz-adv-x="1105" d="M123 20v984l20 20h144l20 -20l21 -82h20q22 28 64 61q85 61 202 61q105 0 181.5 -32t121.5 -91t66 -135t21 -172v-594l-21 -20h-164l-20 20v594q0 36 -3.5 66t-16 65t-33.5 59t-60 40t-92 16q-141 0 -203.5 -81t-62.5 -267v-492l-21 -20h-164z" />
<glyph unicode="o" horiz-adv-x="1105" d="M61 512q0 246 132 389t360 143t359.5 -143t131.5 -389t-131.5 -389t-359.5 -143t-360 143t-132 389zM266 512q0 -172 73 -260t214 -88t214 88t73 260t-73 260t-214 88t-214 -88t-73 -260z" />
<glyph unicode="p" horiz-adv-x="1126" d="M123 -389v1393l20 20h144l20 -20l21 -82h20q22 28 64 61q85 61 202 61q140 0 243.5 -69.5t155.5 -189t52 -273.5t-52 -273.5t-155.5 -189t-243.5 -69.5q-117 0 -202 61q-42 33 -64 61h-20v-491l-21 -21h-164zM328 512q0 -348 266 -348q125 0 195.5 89.5t70.5 258.5 t-70.5 258.5t-195.5 89.5q-266 0 -266 -348z" />
<glyph unicode="q" horiz-adv-x="1126" d="M61 512q0 154 52 273.5t155.5 189t243.5 69.5q118 0 203 -61q39 -31 63 -61h21l20 82l21 20h143l21 -20v-1393l-21 -21h-164l-20 21v491h-21q-24 -30 -63 -61q-85 -61 -203 -61q-140 0 -243.5 69.5t-155.5 189t-52 273.5zM266 512q0 -169 70.5 -258.5t195.5 -89.5 q267 0 267 348t-267 348q-125 0 -195.5 -89.5t-70.5 -258.5z" />
<glyph unicode="r" horiz-adv-x="757" d="M123 20v984l20 20h144l20 -20l21 -82h20q52 52 109.5 77t156.5 25h82l21 -20v-144l-21 -20h-102q-65 0 -111.5 -14t-82.5 -47.5t-54 -95t-18 -151.5v-512l-21 -20h-164z" />
<glyph unicode="s" horiz-adv-x="942" d="M61 328l21 20h164l20 -20q0 -164 205 -164q108 0 156.5 30t48.5 93q0 27 -4.5 46t-20.5 34.5t-31 25t-52 20.5t-66.5 18t-91.5 20q-162 31 -245 103.5t-83 203.5q0 56 21 105.5t65 91t122 65.5t181 24q175 0 282 -79t107 -228l-20 -20h-164l-21 20q0 53 -42.5 88 t-141.5 35q-87 0 -135.5 -22.5t-48.5 -79.5q0 -72 58.5 -102t227.5 -62q159 -32 233.5 -102t74.5 -205q0 -63 -24.5 -117.5t-72.5 -97.5t-128.5 -67.5t-184.5 -24.5q-202 0 -306 88t-104 260z" />
<glyph unicode="t" horiz-adv-x="778" d="M41 860v144l20 20h144l20 20v185l21 20h164l20 -20v-185l21 -20h225l20 -20v-144l-20 -20h-225l-21 -21v-553q0 -44 23.5 -63t58.5 -19h164l20 -20v-144l-20 -20h-164q-75 0 -138 26.5t-106 88.5t-43 151v553l-20 21h-144z" />
<glyph unicode="u" horiz-adv-x="1085" d="M102 410v594l21 20h164l20 -20v-594q0 -246 205 -246q112 0 179 86t67 262v492l20 20h164l21 -20v-984l-21 -20h-143l-21 20l-20 82h-21q-24 -34 -61 -61q-81 -61 -184 -61q-84 0 -150.5 23.5t-111 63.5t-74 95.5t-42 117t-12.5 130.5z" />
<glyph unicode="v" horiz-adv-x="1044" d="M61 860v144l21 20h123l20 -20l287 -717h20l287 717l21 20h123l20 -20v-144l-348 -840l-21 -20h-184l-20 20z" />
<glyph unicode="w" horiz-adv-x="1536" d="M82 860v144l20 20h123l21 -20l184 -697h21l204 697l21 20h184l21 -20l204 -697h21l184 697l21 20h123l20 -20v-144l-246 -840l-20 -20h-184l-21 20l-205 717h-20l-205 -717l-21 -20h-184l-20 20z" />
<glyph unicode="x" horiz-adv-x="1003" d="M61 20v144l308 348v20l-287 328v144l20 20h62l41 -20l287 -328h20l287 328l41 20h61l21 -20v-144l-287 -328v-20l307 -348v-144l-20 -20h-62l-41 20l-307 349h-20l-308 -349l-41 -20h-61z" />
<glyph unicode="y" horiz-adv-x="1044" d="M61 860v144l21 20h123l20 -20l287 -758h20l287 758l21 20h123l20 -20v-144l-328 -819q-50 -120 -89 -188t-91.5 -111t-113 -56.5t-156.5 -13.5h-41l-21 21v143l21 21h41q84 0 130 24.5t75 98.5v20z" />
<glyph unicode="z" d="M82 20v164l20 41l553 594v21h-532l-21 20v144l21 20h778l21 -20v-164l-21 -41l-553 -594v-21h574l20 -20v-144l-20 -20h-820z" />
<glyph unicode="{" horiz-adv-x="901" d="M164 451v122l20 21q79 0 111.5 36.5t32.5 127.5v368q0 147 88 227.5t219 80.5h82l20 -21v-143l-20 -21h-82q-48 0 -75.5 -31.5t-27.5 -91.5v-389q0 -78 -27.5 -133t-74.5 -72v-40q47 -17 74.5 -72t27.5 -133v-389q0 -60 27.5 -91.5t75.5 -31.5h82l20 -21v-143l-20 -21 h-82q-131 0 -219 80.5t-88 227.5v368q0 91 -32.5 127.5t-111.5 36.5z" />
<glyph unicode="|" horiz-adv-x="696" d="M246 -389v1802l20 21h164l21 -21v-1802l-21 -21h-164z" />
<glyph unicode="}" horiz-adv-x="901" d="M164 -246l20 21h82q48 0 75.5 31.5t27.5 91.5v389q0 78 27.5 133t74.5 72v40q-47 17 -74.5 72t-27.5 133v389q0 60 -27.5 91.5t-75.5 31.5h-82l-20 21v143l20 21h82q131 0 219 -80.5t88 -227.5v-368q0 -91 32.5 -127.5t111.5 -36.5l20 -21v-122l-20 -21 q-79 0 -111.5 -36.5t-32.5 -127.5v-368q0 -147 -88 -227.5t-219 -80.5h-82l-20 21v143z" />
<glyph unicode="~" horiz-adv-x="1269" d="M123 369q0 166 74.5 267t232.5 101q51 0 95 -12.5t81.5 -37.5t58.5 -43.5t52 -49.5q40 -40 58.5 -56.5t47 -31t58.5 -14.5q58 0 80 39.5t22 123.5l21 21h122l21 -21q0 -166 -74.5 -267t-232.5 -101q-51 0 -95 12.5t-81.5 37.5t-58.5 43.5t-52 49.5q-40 40 -58.5 56.5 t-47 31t-58.5 14.5q-58 0 -80 -39.5t-22 -123.5l-21 -21h-123z" />
<glyph unicode="&#xa1;" horiz-adv-x="737" d="M246 799v205l20 20h205l21 -20v-205l-21 -21h-205zM266 205l41 389l21 20h82l20 -20l41 -389v-594l-20 -21h-164l-21 21v594z" />
<glyph unicode="&#xa2;" horiz-adv-x="1064" d="M61 512q0 111 27.5 201.5t68.5 147t96 97.5t103 59.5t95 26.5l20 21v82l21 20h122l21 -20v-82l20 -21q58 -9 112.5 -33t106 -64.5t87 -105.5t43.5 -145l-21 -20h-164l-20 20q-18 66 -52 107t-92 57l-20 -20v-656l20 -20q58 16 92 57t52 107l20 20h164l21 -20 q-8 -80 -43.5 -145t-87 -105.5t-106 -64.5t-112.5 -33l-20 -21v-82l-21 -20h-122l-21 20v82l-20 21q-48 8 -95.5 26t-102.5 59t-96 97t-68.5 147t-27.5 203zM266 512q0 -71 14 -129t34 -94t47 -63.5t47.5 -40.5t42.5 -21l20 20v656l-20 20q-22 -8 -42.5 -21t-47.5 -40.5 t-47 -63.5t-34 -94t-14 -129z" />
<glyph unicode="&#xa3;" horiz-adv-x="1228" d="M61 20v144l21 20h20q76 0 110 45.5t34 139.5v184l-21 20h-123l-20 21v123l20 20h123l21 21v246q0 207 110 328.5t320 121.5q409 0 409 -430l-20 -20h-164l-20 20q0 130 -43.5 188t-161.5 58q-225 0 -225 -266v-246l20 -21h410l20 -20v-123l-20 -21h-410l-20 -20v-164 q0 -72 -23.5 -118t-58.5 -66v-21h778l20 -20v-144l-20 -20h-1065z" />
<glyph unicode="&#xa4;" horiz-adv-x="1310" d="M82 61v21l123 123v20q-82 126 -82 287t82 287v20l-123 123v21l123 122h20l123 -122h21q124 81 286 81q163 0 287 -81h21l122 122h21l123 -122v-21l-123 -123v-20q82 -126 82 -287t-82 -287v-20l123 -123v-21l-123 -122h-21l-122 122h-21q-124 -81 -287 -81 q-162 0 -286 81h-21l-123 -122h-20zM328 512q0 -144 89.5 -246t237.5 -102t238 102t90 246t-90 246t-238 102t-237.5 -102t-89.5 -246z" />
<glyph unicode="&#xa5;" horiz-adv-x="1146" d="M82 1270v143l20 21h103l41 -21l307 -655h41l307 655l41 21h102l21 -21v-143l-246 -492v-20h164l21 -21v-123l-21 -20h-225l-41 -21l-41 -81v-41l20 -21h226l20 -20v-123l-20 -21h-226l-20 -20v-226l-21 -20h-163l-21 20v226l-20 20h-226l-20 21v123l20 20h226l20 21v41 l-41 81l-41 21h-225l-21 20v123l21 21h164v20z" />
<glyph unicode="&#xa6;" horiz-adv-x="696" d="M246 20v553l20 21h164l21 -21v-553l-21 -20h-164zM246 860v553l20 21h164l21 -21v-553l-21 -20h-164z" />
<glyph unicode="&#xa7;" horiz-adv-x="1310" d="M82 594q0 127 82 209q36 36 82 57v21q-30 30 -47 50.5t-36.5 69t-19.5 105.5q0 160 129 254t383 94q117 0 209 -24.5t161 -75t105.5 -134t36.5 -196.5l-20 -20h-164l-20 20q0 87 -25.5 138t-98.5 79.5t-204 28.5q-159 0 -223 -41t-64 -123q0 -46 30 -81t81 -58.5 t117 -43.5t139.5 -40t146.5 -42.5t139 -56t117 -77t81 -109t30 -147.5q0 -129 -82 -211q-40 -40 -82 -56v-20q22 -22 34.5 -37t31 -43.5t27.5 -65t9 -79.5q0 -177 -119.5 -273t-371.5 -96q-533 0 -533 430l21 20h164l20 -20q0 -87 25.5 -138t98.5 -79.5t204 -28.5 q151 0 219 45.5t68 139.5q0 46 -30 80.5t-81 57t-117 41.5t-139.5 37.5t-146.5 40t-139 55.5t-117 78t-81 111.5t-30 153.5zM287 614q0 -64 26.5 -111.5t67 -74.5t104 -49.5t122.5 -35.5t138 -34t136 -43h20q33 9 62 31q61 49 61 154q0 43 -17 77.5t-51.5 60t-75 45 t-98 37.5t-109.5 32.5t-121 35t-122 39.5h-20q-36 -9 -62 -28q-61 -45 -61 -136z" />
<glyph unicode="&#xa8;" d="M225 1208v164l21 21h164l20 -21v-164l-20 -20h-164zM594 1208v164l20 21h164l21 -21v-164l-21 -20h-164z" />
<glyph unicode="&#xa9;" horiz-adv-x="1720" d="M123 717q0 151 58 287.5t156.5 235t235 156.5t287.5 58t287.5 -58t235 -156.5t156.5 -235t58 -287.5t-58 -287.5t-156.5 -235t-235 -156.5t-287.5 -58t-287.5 58t-235 156.5t-156.5 235t-58 287.5zM287 717q0 -163 74 -294.5t205 -205.5t294 -74q161 0 292.5 74 t206.5 206t75 294q0 120 -44 226.5t-120.5 182.5t-183 120t-226.5 44q-162 0 -293.5 -75t-205.5 -206t-74 -292zM471 717q0 220 105 325t284 105q53 0 99.5 -8t94 -29.5t83 -55t60.5 -88.5t32 -126l-21 -21h-123l-20 21q-16 99 -66 131.5t-139 32.5q-225 0 -225 -287 t225 -287q89 0 139 32.5t66 131.5l20 20h123l21 -20q-7 -71 -32 -126t-60.5 -88.5t-83 -55t-94 -29.5t-99.5 -8q-179 0 -284 105t-105 325z" />
<glyph unicode="&#xaa;" horiz-adv-x="1146" d="M164 1065q0 189 100 289t248 100q123 0 184 -61h21v20l20 21h144l20 -21v-491q0 -30 11.5 -46t29.5 -16h21l20 -20v-123l-20 -21h-62q-81 0 -143 62h-21q-82 -82 -225 -82q-157 0 -252.5 103.5t-95.5 285.5zM205 553v20l20 21h717l21 -21v-20l-21 -21h-717zM348 1065 q0 -225 184 -225q185 0 185 225t-185 225q-184 0 -184 -225z" />
<glyph unicode="&#xab;" horiz-adv-x="1433" d="M164 451v122l20 41l328 328l41 21h164l20 -21v-61l-368 -349v-40l368 -349v-61l-20 -21h-164l-41 21l-328 328zM696 451v122l21 41l327 328l41 21h164l21 -21v-61l-369 -349v-40l369 -349v-61l-21 -21h-164l-41 21l-327 328z" />
<glyph unicode="&#xac;" horiz-adv-x="1187" d="M123 451v143l20 20h861l20 -20v-389l-20 -21h-144l-20 21v205l-21 20h-676z" />
<glyph unicode="&#xad;" horiz-adv-x="839" d="M123 451v143l20 20h553l21 -20v-143l-21 -21h-553z" />
<glyph unicode="&#xae;" horiz-adv-x="1720" d="M123 717q0 151 58 287.5t156.5 235t235 156.5t287.5 58t287.5 -58t235 -156.5t156.5 -235t58 -287.5t-58 -287.5t-156.5 -235t-235 -156.5t-287.5 -58t-287.5 58t-235 156.5t-156.5 235t-58 287.5zM287 717q0 -163 74 -294.5t205 -205.5t294 -74q161 0 292.5 74 t206.5 206t75 294q0 120 -44 226.5t-120.5 182.5t-183 120t-226.5 44q-162 0 -293.5 -75t-205.5 -206t-74 -292zM532 328v778l21 20h410q126 0 196 -62t70 -183q0 -171 -164 -226v-20l164 -205v-102l-21 -21h-61l-41 21l-225 286l-41 21h-123l-21 -21v-286l-20 -21h-123z M696 799l21 -21h246q47 0 74.5 28t27.5 75t-27.5 74.5t-74.5 27.5h-246l-21 -20v-164z" />
<glyph unicode="&#xaf;" d="M184 1208v123l21 21h614l21 -21v-123l-21 -20h-614z" />
<glyph unicode="&#xb0;" horiz-adv-x="1187" d="M164 1024q0 184 123 307t307 123t307 -123t123 -307t-123 -307t-307 -123t-307 123t-123 307zM348 1024q0 -122 67.5 -194t178.5 -72t178.5 72t67.5 194t-67.5 194t-178.5 72t-178.5 -72t-67.5 -194z" />
<glyph unicode="&#xb1;" horiz-adv-x="1187" d="M143 20v144l21 20h880l21 -20v-144l-21 -20h-880zM143 594v143l21 21h328l20 20v226l20 20h144l20 -20v-226l21 -20h327l21 -21v-143l-21 -21h-327l-21 -20v-225l-20 -21h-144l-20 21v225l-20 20h-328z" />
<glyph unicode="&#xb2;" horiz-adv-x="737" d="M102 717v123l21 41l184 123q90 62 117 101t27 103q0 35 -19 58.5t-63 23.5t-63 -23.5t-19 -58.5l-21 -20h-143l-21 20q0 114 66.5 180t200.5 66t200 -66t66 -180q0 -97 -36 -156t-107 -110l-82 -61v-21h225l20 -20v-123l-20 -21h-512z" />
<glyph unicode="&#xb3;" horiz-adv-x="737" d="M82 922l20 20h144l20 -20q0 -45 26 -63.5t77 -18.5q47 0 74.5 27.5t27.5 74.5q0 35 -21.5 56.5t-52.5 21.5q-27 0 -49 -16h-61l-21 20v102l123 123v21h-246l-20 20v123l20 21h451l20 -21v-123l-20 -41l-102 -102v-21q44 -3 81 -22q82 -46 82 -162q0 -112 -76 -189 t-210 -77q-138 0 -212.5 66.5t-74.5 179.5z" />
<glyph unicode="&#xb4;" d="M307 1167v41l185 205l40 21h144l20 -21v-41l-225 -205l-41 -20h-102z" />
<glyph unicode="&#xb5;" horiz-adv-x="1187" d="M164 -389v1393l20 20h164l21 -20v-533q0 -307 225 -307t225 307v533l21 20h164l20 -20v-984l-20 -20h-144l-20 20l-21 41h-20q-34 -26 -58 -41q-68 -40 -147 -40q-89 0 -150 40q-28 14 -55 41h-20v-450l-21 -21h-164z" />
<glyph unicode="&#xb6;" horiz-adv-x="1454" d="M123 1024q0 208 120 309t330 101h758l21 -21v-143l-21 -21h-123l-20 -20v-1618l-21 -21h-163l-21 21v1618l-20 20h-164l-21 -20v-1618l-20 -21h-164l-21 21v983l-20 20q-195 0 -312.5 102t-117.5 308z" />
<glyph unicode="&#xb7;" horiz-adv-x="573" d="M164 430v205l20 20h205l21 -20v-205l-21 -20h-205z" />
<glyph unicode="&#xb8;" d="M328 -328l20 21h21q20 -20 43.5 -29t42 -10.5t57.5 -1.5q50 0 76 18.5t26 63.5t-26 63.5t-76 18.5h-10q-31 0 -72 -21h-20l-21 21v20l164 164h82l-143 -143h20q39 20 72 20h10q52 0 87.5 -35t35.5 -108q0 -77 -55.5 -120.5t-149.5 -43.5q-62 0 -101 17.5t-83 64.5v20z " />
<glyph unicode="&#xb9;" horiz-adv-x="737" d="M102 717v123l21 20h164l20 21v307h-20l-82 -82h-62l-20 20v123l164 164l41 21h143l21 -21v-532l20 -21h123l20 -20v-123l-20 -21h-512z" />
<glyph unicode="&#xba;" horiz-adv-x="1064" d="M164 1065q0 176 94 282.5t274 106.5q178 0 273.5 -107t95.5 -282t-95.5 -282t-273.5 -107q-180 0 -274 106.5t-94 282.5zM205 553v20l20 21h615l20 -21v-20l-20 -21h-615zM348 1065q0 -225 184 -225q185 0 185 225t-185 225q-184 0 -184 -225z" />
<glyph unicode="&#xbb;" horiz-adv-x="1433" d="M164 82v61l368 349v40l-368 349v61l20 21h164l41 -21l328 -328l20 -41v-122l-20 -41l-328 -328l-41 -21h-164zM696 82v61l369 349v40l-369 349v61l21 21h164l41 -21l327 -328l21 -41v-122l-21 -41l-327 -328l-41 -21h-164z" />
<glyph unicode="&#xbc;" horiz-adv-x="1761" d="M102 717v123l21 20h164l20 21v307h-20l-82 -82h-62l-20 20v123l164 164l41 21h143l21 -21v-532l20 -21h123l20 -20v-123l-20 -21h-512zM410 20v144l819 1249l20 21h82l21 -21v-143l-820 -1250l-20 -20h-82zM963 164v164l20 41l348 348l41 20h164l20 -20v-697l-20 -20 h-143l-21 20v103l-20 20h-369zM1167 307h185l20 21v184h-20l-185 -184v-21z" />
<glyph unicode="&#xbd;" horiz-adv-x="1761" d="M102 717v123l21 20h164l20 21v307h-20l-82 -82h-62l-20 20v123l164 164l41 21h143l21 -21v-532l20 -21h123l20 -20v-123l-20 -21h-512zM410 20v144l819 1249l20 21h82l21 -21v-143l-820 -1250l-20 -20h-82zM1085 20v123l21 41l184 123q90 62 117 101t27 104 q0 35 -19 58.5t-63 23.5t-63 -23.5t-19 -58.5l-21 -20h-143l-21 20q0 114 66.5 180t200.5 66t200 -66t66 -180q0 -97 -36 -156t-107 -110l-82 -62v-20h225l20 -21v-123l-20 -20h-512z" />
<glyph unicode="&#xbe;" horiz-adv-x="1761" d="M123 922l20 20h144l20 -20q0 -45 26 -63.5t77 -18.5q47 0 74.5 27.5t27.5 74.5q0 35 -21.5 56.5t-52.5 21.5q-27 0 -49 -16h-61l-21 20v102l123 123v21h-246l-20 20v123l20 21h451l20 -21v-123l-20 -41l-103 -102v-21q45 -3 82 -22q82 -46 82 -162q0 -112 -76 -189 t-210 -77q-138 0 -212.5 66.5t-74.5 179.5zM410 20v144l819 1249l20 21h82l21 -21v-143l-820 -1250l-20 -20h-82zM963 164v164l20 41l348 348l41 20h164l20 -20v-697l-20 -20h-143l-21 20v103l-20 20h-369zM1167 307h185l20 21v184h-20l-185 -184v-21z" />
<glyph unicode="&#xbf;" horiz-adv-x="1228" d="M164 -41q0 74 13.5 131t44 103t62 78.5t85.5 76.5q39 34 55 48t40 38.5t32.5 39t19 37.5t13.5 47t3 56l21 21h164l20 -21q0 -122 -35.5 -195t-128.5 -153q-103 -86 -135 -122q-69 -79 -69 -185q0 -88 58 -146.5t187 -58.5q131 0 188.5 68t57.5 198l21 21h163l21 -21 q0 -208 -114.5 -329t-336.5 -121q-204 0 -327 103.5t-123 285.5zM512 799v205l20 20h205l21 -20v-205l-21 -21h-205z" />
<glyph unicode="&#xc0;" horiz-adv-x="1290" d="M41 20v144l491 1249l21 21h184l21 -21l491 -1249v-144l-20 -20h-123l-21 20l-122 308l-41 20h-553l-41 -20l-123 -308l-21 -20h-123zM389 1782v41l21 20h143l41 -20l184 -205v-41l-20 -21h-103l-41 21zM410 553l20 -21h430l21 21l-226 573h-20z" />
<glyph unicode="&#xc1;" horiz-adv-x="1290" d="M41 20v144l491 1249l21 21h184l21 -21l491 -1249v-144l-20 -20h-123l-21 20l-122 308l-41 20h-553l-41 -20l-123 -308l-21 -20h-123zM410 553l20 -21h430l21 21l-226 573h-20zM512 1577v41l184 205l41 20h144l20 -20v-41l-225 -205l-41 -21h-103z" />
<glyph unicode="&#xc2;" horiz-adv-x="1290" d="M41 20v144l491 1249l21 21h184l21 -21l491 -1249v-144l-20 -20h-123l-21 20l-122 308l-41 20h-553l-41 -20l-123 -308l-21 -20h-123zM328 1577v41l184 205l41 20h184l41 -20l185 -205v-41l-21 -21h-102l-41 21l-144 123h-20l-143 -123l-41 -21h-103zM410 553l20 -21h430 l21 21l-226 573h-20z" />
<glyph unicode="&#xc3;" horiz-adv-x="1290" d="M41 20v144l491 1249l21 21h184l21 -21l491 -1249v-144l-20 -20h-123l-21 20l-122 308l-41 20h-553l-41 -20l-123 -308l-21 -20h-123zM307 1577q0 97 52.5 161t152.5 64q56 0 102.5 -22.5t72 -49t56 -49t56.5 -22.5q45 0 63.5 26t18.5 76l20 21h62l20 -21 q0 -98 -52 -161.5t-153 -63.5q-56 0 -102.5 22.5t-71.5 49t-55.5 49t-56.5 22.5q-45 0 -63.5 -26t-18.5 -76l-21 -21h-61zM410 553l20 -21h430l21 21l-226 573h-20z" />
<glyph unicode="&#xc4;" horiz-adv-x="1290" d="M41 20v144l491 1249l21 21h184l21 -21l491 -1249v-144l-20 -20h-123l-21 20l-122 308l-41 20h-553l-41 -20l-123 -308l-21 -20h-123zM348 1618v164l21 20h163l21 -20v-164l-21 -21h-163zM410 553l20 -21h430l21 21l-226 573h-20zM737 1618v164l21 20h164l20 -20v-164 l-20 -21h-164z" />
<glyph unicode="&#xc5;" horiz-adv-x="1290" d="M41 20v144l491 1249l21 21h184l21 -21l491 -1249v-144l-20 -20h-123l-21 20l-122 308l-41 20h-553l-41 -20l-123 -308l-21 -20h-123zM410 553l20 -21h430l21 21l-226 573h-20zM430 1659q0 79 57 131.5t148 52.5h20q91 0 148 -52.5t57 -131.5t-57 -131.5t-148 -52.5h-20 q-91 0 -148 52.5t-57 131.5zM553 1659q0 -35 19 -58.5t63 -23.5h20q44 0 63 23.5t19 58.5t-19 58.5t-63 23.5h-20q-44 0 -63 -23.5t-19 -58.5z" />
<glyph unicode="&#xc6;" horiz-adv-x="1966" d="M41 20v144l696 1249l21 21h1065l20 -21v-143l-20 -21h-656l-20 -20v-389l20 -21h615l20 -20v-144l-20 -20h-615l-20 -21v-409l20 -21h656l20 -20v-144l-20 -20h-860l-21 20v308l-20 20h-512l-41 -20l-164 -308l-21 -20h-123zM492 553l20 -21h410l20 21v676l-20 20h-41 l-21 -20z" />
<glyph unicode="&#xc7;" horiz-adv-x="1413" d="M82 717q0 217 78 382.5t232 260t366 94.5q240 0 389.5 -119t183.5 -311l-20 -20h-164l-21 20q-32 114 -125.5 180t-242.5 66q-224 0 -347.5 -150.5t-123.5 -402.5t123.5 -402.5t347.5 -150.5q287 0 368 266l21 21h164l20 -21q-12 -84 -48 -155.5t-84.5 -121.5 t-109.5 -87.5t-123 -58t-126 -27.5l-41 -21l-103 -102h21q39 20 71 20h11q52 0 87.5 -35t35.5 -108q0 -77 -55.5 -120.5t-149.5 -43.5q-62 0 -101.5 17.5t-83.5 64.5v20l21 21h20q28 -28 57.5 -34.5t86.5 -6.5q50 0 76 18.5t26 63.5t-26 63.5t-76 18.5h-10q-31 0 -72 -21 h-21l-20 21v20l123 123v21q-186 12 -328 99.5t-224.5 252t-82.5 385.5z" />
<glyph unicode="&#xc8;" horiz-adv-x="1249" d="M164 20v1393l20 21h922l20 -21v-143l-20 -21h-717l-20 -20v-389l20 -21h676l20 -20v-144l-20 -20h-676l-20 -21v-409l20 -21h717l20 -20v-144l-20 -20h-922zM389 1782v41l21 20h143l41 -20l184 -205v-41l-20 -21h-103l-41 21z" />
<glyph unicode="&#xc9;" horiz-adv-x="1249" d="M164 20v1393l20 21h922l20 -21v-143l-20 -21h-717l-20 -20v-389l20 -21h676l20 -20v-144l-20 -20h-676l-20 -21v-409l20 -21h717l20 -20v-144l-20 -20h-922zM512 1577v41l184 205l41 20h144l20 -20v-41l-225 -205l-41 -21h-103z" />
<glyph unicode="&#xca;" horiz-adv-x="1249" d="M164 20v1393l20 21h922l20 -21v-143l-20 -21h-717l-20 -20v-389l20 -21h676l20 -20v-144l-20 -20h-676l-20 -21v-409l20 -21h717l20 -20v-144l-20 -20h-922zM328 1577v41l184 205l41 20h205l41 -20l184 -205v-41l-20 -21h-103l-41 21l-143 123h-41l-143 -123l-41 -21 h-103z" />
<glyph unicode="&#xcb;" horiz-adv-x="1249" d="M164 20v1393l20 21h922l20 -21v-143l-20 -21h-717l-20 -20v-389l20 -21h676l20 -20v-144l-20 -20h-676l-20 -21v-409l20 -21h717l20 -20v-144l-20 -20h-922zM369 1618v164l20 20h164l20 -20v-164l-20 -21h-164zM737 1618v164l21 20h164l20 -20v-164l-20 -21h-164z" />
<glyph unicode="&#xcc;" horiz-adv-x="532" d="M0 1782v41l20 20h144l41 -20l184 -205v-41l-20 -21h-103l-41 21zM164 20v1393l20 21h164l21 -21v-1393l-21 -20h-164z" />
<glyph unicode="&#xcd;" horiz-adv-x="532" d="M143 1577v41l185 205l41 20h143l20 -20v-41l-225 -205l-41 -21h-102zM164 20v1393l20 21h164l21 -21v-1393l-21 -20h-164z" />
<glyph unicode="&#xce;" horiz-adv-x="532" d="M-61 1577v41l184 205l41 20h205l41 -20l184 -205v-41l-21 -21h-102l-41 21l-143 123h-41l-144 -123l-41 -21h-102zM164 20v1393l20 21h164l21 -21v-1393l-21 -20h-164z" />
<glyph unicode="&#xcf;" horiz-adv-x="532" d="M-20 1618v164l20 20h164l20 -20v-164l-20 -21h-164zM164 20v1393l20 21h164l21 -21v-1393l-21 -20h-164zM348 1618v164l21 20h163l21 -20v-164l-21 -21h-163z" />
<glyph unicode="&#xd0;" horiz-adv-x="1372" d="M0 655v144l20 20h123l21 21v573l20 21h430q151 0 266.5 -33.5t192.5 -94t126 -151t70 -197.5t21 -241t-21 -241t-70 -197.5t-126 -151t-192.5 -94t-266.5 -33.5h-430l-20 20v594l-21 21h-123zM369 205l20 -21h205q143 0 239.5 33t151.5 103t77.5 165t22.5 232 t-22.5 231.5t-77.5 164.5t-151.5 103t-239.5 33h-205l-20 -20v-389l20 -21h307l21 -20v-144l-21 -20h-307l-20 -21v-409z" />
<glyph unicode="&#xd1;" horiz-adv-x="1495" d="M164 20v1393l20 21h185l41 -21l696 -1065h20v1065l21 21h164l20 -21v-1393l-20 -20h-185l-41 20l-696 1065h-20v-1065l-21 -20h-164zM410 1577q0 97 52 161t152 64q56 0 102.5 -22.5t72 -49t56 -49t56.5 -22.5q45 0 63.5 26t18.5 76l21 21h61l20 -21q0 -98 -51.5 -161.5 t-152.5 -63.5q-56 0 -102.5 22.5t-72 49t-56 49t-56.5 22.5q-45 0 -63.5 -26t-18.5 -76l-20 -21h-62z" />
<glyph unicode="&#xd2;" horiz-adv-x="1515" d="M82 717q0 217 78 382.5t232 260t366 94.5t366 -94.5t232 -260t78 -382.5t-78 -382.5t-232 -260t-366 -94.5t-366 94.5t-232 260t-78 382.5zM287 717q0 -252 123.5 -402.5t347.5 -150.5t347.5 150.5t123.5 402.5t-123.5 402.5t-347.5 150.5t-347.5 -150.5t-123.5 -402.5z M532 1782v41l21 20h143l41 -20l185 -205v-41l-21 -21h-102l-41 21z" />
<glyph unicode="&#xd3;" horiz-adv-x="1515" d="M82 717q0 217 78 382.5t232 260t366 94.5t366 -94.5t232 -260t78 -382.5t-78 -382.5t-232 -260t-366 -94.5t-366 94.5t-232 260t-78 382.5zM287 717q0 -252 123.5 -402.5t347.5 -150.5t347.5 150.5t123.5 402.5t-123.5 402.5t-347.5 150.5t-347.5 -150.5t-123.5 -402.5z M594 1577v41l184 205l41 20h144l20 -20v-41l-225 -205l-41 -21h-103z" />
<glyph unicode="&#xd4;" horiz-adv-x="1515" d="M82 717q0 217 78 382.5t232 260t366 94.5t366 -94.5t232 -260t78 -382.5t-78 -382.5t-232 -260t-366 -94.5t-366 94.5t-232 260t-78 382.5zM287 717q0 -252 123.5 -402.5t347.5 -150.5t347.5 150.5t123.5 402.5t-123.5 402.5t-347.5 150.5t-347.5 -150.5t-123.5 -402.5z M430 1577v41l184 205l41 20h205l41 -20l184 -205v-41l-20 -21h-102l-41 21l-144 123h-41l-143 -123l-41 -21h-102z" />
<glyph unicode="&#xd5;" horiz-adv-x="1515" d="M82 717q0 217 78 382.5t232 260t366 94.5t366 -94.5t232 -260t78 -382.5t-78 -382.5t-232 -260t-366 -94.5t-366 94.5t-232 260t-78 382.5zM287 717q0 -252 123.5 -402.5t347.5 -150.5t347.5 150.5t123.5 402.5t-123.5 402.5t-347.5 150.5t-347.5 -150.5t-123.5 -402.5z M410 1577q0 97 52 161t152 64q56 0 102.5 -22.5t72 -49t56 -49t56.5 -22.5q45 0 63.5 26t18.5 76l21 21h61l20 -21q0 -98 -51.5 -161.5t-152.5 -63.5q-56 0 -102.5 22.5t-72 49t-56 49t-56.5 22.5q-45 0 -63.5 -26t-18.5 -76l-20 -21h-62z" />
<glyph unicode="&#xd6;" horiz-adv-x="1515" d="M82 717q0 217 78 382.5t232 260t366 94.5t366 -94.5t232 -260t78 -382.5t-78 -382.5t-232 -260t-366 -94.5t-366 94.5t-232 260t-78 382.5zM287 717q0 -252 123.5 -402.5t347.5 -150.5t347.5 150.5t123.5 402.5t-123.5 402.5t-347.5 150.5t-347.5 -150.5t-123.5 -402.5z M471 1618v164l21 20h163l21 -20v-164l-21 -21h-163zM840 1618v164l20 20h164l20 -20v-164l-20 -21h-164z" />
<glyph unicode="&#xd7;" horiz-adv-x="1249" d="M164 164v20l328 328v20l-328 328v21l102 102h21l327 -328h21l328 328h20l102 -102v-21l-327 -328v-20l327 -328v-20l-102 -103h-20l-328 328h-21l-327 -328h-21z" />
<glyph unicode="&#xd8;" horiz-adv-x="1515" d="M82 717q0 217 78 382.5t232 260t366 94.5q151 0 264 -45t207 -139h20l82 82l41 20h21l20 -20v-41l-102 -103v-41q123 -185 123 -450q0 -217 -78 -382.5t-232 -260t-366 -94.5q-151 0 -264 45t-207 139h-21l-82 -82l-41 -21h-20l-21 21v41l103 102v41q-123 184 -123 451z M287 717q0 -206 61 -328h21l716 717v41q-63 63 -141 93t-186 30q-224 0 -347.5 -150.5t-123.5 -402.5zM430 287q123 -123 328 -123q224 0 347.5 150.5t123.5 402.5q0 203 -62 327h-20l-717 -716v-41z" />
<glyph unicode="&#xd9;" horiz-adv-x="1433" d="M164 512v901l20 21h164l21 -21v-901q0 -162 85.5 -255t262.5 -93t262.5 93t85.5 255v901l20 21h164l21 -21v-901q0 -247 -146.5 -389.5t-406.5 -142.5t-406.5 142.5t-146.5 389.5zM451 1782v41l20 20h143l41 -20l185 -205v-41l-21 -21h-102l-41 21z" />
<glyph unicode="&#xda;" horiz-adv-x="1433" d="M164 512v901l20 21h164l21 -21v-901q0 -162 85.5 -255t262.5 -93t262.5 93t85.5 255v901l20 21h164l21 -21v-901q0 -247 -146.5 -389.5t-406.5 -142.5t-406.5 142.5t-146.5 389.5zM594 1577v41l184 205l41 20h144l20 -20v-41l-225 -205l-41 -21h-103z" />
<glyph unicode="&#xdb;" horiz-adv-x="1433" d="M164 512v901l20 21h164l21 -21v-901q0 -162 85.5 -255t262.5 -93t262.5 93t85.5 255v901l20 21h164l21 -21v-901q0 -247 -146.5 -389.5t-406.5 -142.5t-406.5 142.5t-146.5 389.5zM389 1577v41l184 205l41 20h205l41 -20l184 -205v-41l-20 -21h-102l-41 21l-144 123h-41 l-143 -123l-41 -21h-102z" />
<glyph unicode="&#xdc;" horiz-adv-x="1433" d="M164 512v901l20 21h164l21 -21v-901q0 -162 85.5 -255t262.5 -93t262.5 93t85.5 255v901l20 21h164l21 -21v-901q0 -247 -146.5 -389.5t-406.5 -142.5t-406.5 142.5t-146.5 389.5zM430 1618v164l21 20h163l21 -20v-164l-21 -21h-163zM799 1618v164l20 20h164l21 -20v-164 l-21 -21h-164z" />
<glyph unicode="&#xdd;" horiz-adv-x="1187" d="M61 1270v143l21 21h82l41 -21l368 -614h41l369 614l41 21h82l20 -21v-143l-430 -697v-553l-20 -20h-164l-20 20v553zM451 1577v41l184 205l41 20h143l21 -20v-41l-226 -205l-41 -21h-102z" />
<glyph unicode="&#xde;" horiz-adv-x="1269" d="M164 20v1393l20 21h164l21 -21v-266l20 -21h328q224 0 347.5 -100.5t123.5 -308.5q0 -105 -35.5 -184.5t-100 -128.5t-148.5 -73t-187 -24h-328l-20 -20v-267l-21 -20h-164zM369 512l20 -20h328q142 0 204 51.5t62 173.5t-62 173.5t-204 51.5h-328l-20 -20v-410z" />
<glyph unicode="&#xdf;" horiz-adv-x="1187" d="M41 881v123l20 20h103l20 20q0 190 110 300t320 110q119 0 208.5 -31.5t141 -86.5t76.5 -123t25 -148q0 -205 -164 -287v-20q90 -20 157.5 -103.5t67.5 -224.5q0 -126 -46.5 -226t-145.5 -162t-238 -62q-65 0 -131 20q-39 13 -53 20l-20 21v123l20 20q16 -6 53 -10 q55 -10 131 -10q115 0 170.5 75t55.5 191q0 65 -13.5 108.5t-48 75.5t-95 47t-151.5 15l-20 20v123l20 21q246 0 246 204q0 50 -10 87t-35.5 70.5t-76 51t-124.5 17.5q-113 0 -169 -53t-56 -173v-1024l-20 -20h-164l-21 20v820l-20 20h-103z" />
<glyph unicode="&#xe0;" d="M61 307q0 163 121 245.5t330 82.5q76 0 131 -10q21 -7 53 -11l21 21v41q0 106 -46.5 145t-158.5 39q-108 0 -156.5 -30t-48.5 -93l-20 -20h-164l-21 20q0 57 21.5 109t67.5 97.5t128.5 73t192.5 27.5q225 0 317.5 -107.5t92.5 -342.5v-574l-21 -20h-143l-21 20l-20 82 h-21q-27 -34 -67 -61q-92 -61 -219 -61q-170 0 -259.5 85.5t-89.5 241.5zM266 307q0 -76 45 -109.5t140 -33.5q122 0 194 56t72 149v61l-21 21l-43 10q-52 10 -121 10q-266 0 -266 -164zM266 1372v41l21 21h143l41 -21l184 -205v-41l-20 -20h-103l-40 20z" />
<glyph unicode="&#xe1;" d="M61 307q0 163 121 245.5t330 82.5q76 0 131 -10q21 -7 53 -11l21 21v41q0 106 -46.5 145t-158.5 39q-108 0 -156.5 -30t-48.5 -93l-20 -20h-164l-21 20q0 57 21.5 109t67.5 97.5t128.5 73t192.5 27.5q225 0 317.5 -107.5t92.5 -342.5v-574l-21 -20h-143l-21 20l-20 82 h-21q-27 -34 -67 -61q-92 -61 -219 -61q-170 0 -259.5 85.5t-89.5 241.5zM266 307q0 -76 45 -109.5t140 -33.5q122 0 194 56t72 149v61l-21 21l-43 10q-52 10 -121 10q-266 0 -266 -164zM369 1167v41l184 205l41 21h143l21 -21v-41l-226 -205l-40 -20h-103z" />
<glyph unicode="&#xe2;" d="M61 307q0 163 121 245.5t330 82.5q76 0 131 -10q21 -7 53 -11l21 21v41q0 106 -46.5 145t-158.5 39q-108 0 -156.5 -30t-48.5 -93l-20 -20h-164l-21 20q0 57 21.5 109t67.5 97.5t128.5 73t192.5 27.5q225 0 317.5 -107.5t92.5 -342.5v-574l-21 -20h-143l-21 20l-20 82 h-21q-27 -34 -67 -61q-92 -61 -219 -61q-170 0 -259.5 85.5t-89.5 241.5zM184 1167v41l185 205l41 21h204l41 -21l185 -205v-41l-21 -20h-102l-41 20l-144 123h-40l-144 -123l-41 -20h-102zM266 307q0 -76 45 -109.5t140 -33.5q122 0 194 56t72 149v61l-21 21l-43 10 q-52 10 -121 10q-266 0 -266 -164z" />
<glyph unicode="&#xe3;" d="M61 307q0 163 121 245.5t330 82.5q76 0 131 -10q21 -7 53 -11l21 21v41q0 106 -46.5 145t-158.5 39q-108 0 -156.5 -30t-48.5 -93l-20 -20h-164l-21 20q0 57 21.5 109t67.5 97.5t128.5 73t192.5 27.5q225 0 317.5 -107.5t92.5 -342.5v-574l-21 -20h-143l-21 20l-20 82 h-21q-27 -34 -67 -61q-92 -61 -219 -61q-170 0 -259.5 85.5t-89.5 241.5zM184 1167q0 97 52.5 161.5t152.5 64.5q46 0 84.5 -15t64.5 -36t48 -42t45 -36t45 -15q45 0 63.5 26t18.5 77l20 20h62l20 -20q0 -98 -52 -162t-153 -64q-46 0 -84.5 15t-64 36t-48 42t-45 36 t-44.5 15q-45 0 -63.5 -26t-18.5 -77l-21 -20h-61zM266 307q0 -76 45 -109.5t140 -33.5q122 0 194 56t72 149v61l-21 21l-43 10q-52 10 -121 10q-266 0 -266 -164z" />
<glyph unicode="&#xe4;" d="M61 307q0 163 121 245.5t330 82.5q76 0 131 -10q21 -7 53 -11l21 21v41q0 106 -46.5 145t-158.5 39q-108 0 -156.5 -30t-48.5 -93l-20 -20h-164l-21 20q0 57 21.5 109t67.5 97.5t128.5 73t192.5 27.5q225 0 317.5 -107.5t92.5 -342.5v-574l-21 -20h-143l-21 20l-20 82 h-21q-27 -34 -67 -61q-92 -61 -219 -61q-170 0 -259.5 85.5t-89.5 241.5zM225 1208v164l21 21h164l20 -21v-164l-20 -20h-164zM266 307q0 -76 45 -109.5t140 -33.5q122 0 194 56t72 149v61l-21 21l-43 10q-52 10 -121 10q-266 0 -266 -164zM594 1208v164l20 21h164l21 -21 v-164l-21 -20h-164z" />
<glyph unicode="&#xe5;" d="M61 307q0 163 121 245.5t330 82.5q76 0 131 -10q21 -7 53 -11l21 21v41q0 106 -46.5 145t-158.5 39q-108 0 -156.5 -30t-48.5 -93l-20 -20h-164l-21 20q0 57 21.5 109t67.5 97.5t128.5 73t192.5 27.5q225 0 317.5 -107.5t92.5 -342.5v-574l-21 -20h-143l-21 20l-20 82 h-21q-27 -34 -67 -61q-92 -61 -219 -61q-170 0 -259.5 85.5t-89.5 241.5zM266 307q0 -76 45 -109.5t140 -33.5q122 0 194 56t72 149v61l-21 21l-43 10q-52 10 -121 10q-266 0 -266 -164zM307 1311q0 79 57 131.5t148 52.5t148 -52.5t57 -131.5t-57 -132t-148 -53t-148 53 t-57 132zM430 1311q0 -35 19 -58.5t63 -23.5t63 23.5t19 58.5t-19 58.5t-63 23.5t-63 -23.5t-19 -58.5z" />
<glyph unicode="&#xe6;" horiz-adv-x="1699" d="M61 307q0 163 121 245.5t330 82.5q76 0 131 -10q21 -7 53 -11l21 21v20q0 119 -47 162t-158 43q-108 0 -156.5 -30t-48.5 -93l-20 -20h-164l-21 20q0 57 21.5 109t67.5 97.5t128.5 73t192.5 27.5q234 0 328 -122h20q46 59 128.5 90.5t178.5 31.5q119 0 211 -42.5 t148 -116.5t84 -168.5t28 -204.5v-61l-20 -21h-676l-20 -20q0 -14 3 -32.5t11 -49t27 -57.5t46.5 -52t74 -40t104.5 -15q72 0 123.5 26t81.5 97l20 20h164l20 -20q-18 -131 -125.5 -219t-283.5 -88q-96 0 -174.5 25t-117 52t-77.5 66h-20q-77 -77 -166 -110t-223 -33 q-170 0 -259.5 85.5t-89.5 241.5zM266 307q0 -76 45 -109.5t140 -33.5q122 0 194 56t72 149v61l-21 21l-43 10q-52 10 -121 10q-266 0 -266 -164zM922 614l20 -20h451l20 20q0 24 -4 49.5t-19 63t-40 65t-72.5 48t-110.5 20.5t-110.5 -20.5t-72.5 -48t-40 -65t-18.5 -63 t-3.5 -49.5z" />
<glyph unicode="&#xe7;" horiz-adv-x="1064" d="M61 512q0 246 132 389t360 143q204 0 318 -99t133 -249l-21 -20h-164l-20 20q-46 164 -246 164q-141 0 -214 -88t-73 -260t73 -260t214 -88q200 0 246 164l20 20h164l21 -20q-17 -149 -123.5 -239.5t-266.5 -108.5l-41 -21l-102 -102h21q39 20 71 20h10q52 0 87.5 -35 t35.5 -108q0 -77 -55.5 -120.5t-148.5 -43.5q-62 0 -101.5 17.5t-83.5 64.5v20l21 21h20q28 -28 57.5 -34.5t86.5 -6.5q50 0 76 18.5t26 63.5t-26 63.5t-76 18.5h-11q-30 0 -71 -21h-21l-20 21v20l123 123v21q-87 9 -162 44.5t-136.5 98t-97 162.5t-35.5 227z" />
<glyph unicode="&#xe8;" horiz-adv-x="1064" d="M61 512q0 110 28 204.5t84 168.5t148 116.5t211 42.5t211.5 -42.5t148 -116.5t84 -168.5t28.5 -204.5v-61l-21 -21h-676l-20 -20q0 -14 3 -32.5t11 -49t27 -57.5t46.5 -52t74 -40t104.5 -15q72 0 123.5 26t81.5 97l20 20h164l21 -20q-18 -131 -126 -219t-284 -88 q-238 0 -365 146.5t-127 385.5zM287 614l20 -20h451l20 20q0 24 -4 49.5t-19 63t-40 65t-72.5 48t-110.5 20.5t-110.5 -20.5t-72.5 -48t-40 -65t-18.5 -63t-3.5 -49.5zM287 1372v41l20 21h144l41 -21l184 -205v-41l-21 -20h-102l-41 20z" />
<glyph unicode="&#xe9;" horiz-adv-x="1064" d="M61 512q0 110 28 204.5t84 168.5t148 116.5t211 42.5t211.5 -42.5t148 -116.5t84 -168.5t28.5 -204.5v-61l-21 -21h-676l-20 -20q0 -14 3 -32.5t11 -49t27 -57.5t46.5 -52t74 -40t104.5 -15q72 0 123.5 26t81.5 97l20 20h164l21 -20q-18 -131 -126 -219t-284 -88 q-238 0 -365 146.5t-127 385.5zM287 614l20 -20h451l20 20q0 24 -4 49.5t-19 63t-40 65t-72.5 48t-110.5 20.5t-110.5 -20.5t-72.5 -48t-40 -65t-18.5 -63t-3.5 -49.5zM389 1167v41l184 205l41 21h144l20 -21v-41l-225 -205l-41 -20h-102z" />
<glyph unicode="&#xea;" horiz-adv-x="1064" d="M61 512q0 110 28 204.5t84 168.5t148 116.5t211 42.5t211.5 -42.5t148 -116.5t84 -168.5t28.5 -204.5v-61l-21 -21h-676l-20 -20q0 -14 3 -32.5t11 -49t27 -57.5t46.5 -52t74 -40t104.5 -15q72 0 123.5 26t81.5 97l20 20h164l21 -20q-18 -131 -126 -219t-284 -88 q-238 0 -365 146.5t-127 385.5zM205 1167v41l184 205l41 21h205l41 -21l184 -205v-41l-20 -20h-103l-41 20l-143 123h-41l-143 -123l-41 -20h-103zM287 614l20 -20h451l20 20q0 24 -4 49.5t-19 63t-40 65t-72.5 48t-110.5 20.5t-110.5 -20.5t-72.5 -48t-40 -65t-18.5 -63 t-3.5 -49.5z" />
<glyph unicode="&#xeb;" horiz-adv-x="1064" d="M61 512q0 110 28 204.5t84 168.5t148 116.5t211 42.5t211.5 -42.5t148 -116.5t84 -168.5t28.5 -204.5v-61l-21 -21h-676l-20 -20q0 -14 3 -32.5t11 -49t27 -57.5t46.5 -52t74 -40t104.5 -15q72 0 123.5 26t81.5 97l20 20h164l21 -20q-18 -131 -126 -219t-284 -88 q-238 0 -365 146.5t-127 385.5zM246 1208v164l20 21h164l21 -21v-164l-21 -20h-164zM287 614l20 -20h451l20 20q0 24 -4 49.5t-19 63t-40 65t-72.5 48t-110.5 20.5t-110.5 -20.5t-72.5 -48t-40 -65t-18.5 -63t-3.5 -49.5zM614 1208v164l21 21h164l20 -21v-164l-20 -20h-164z " />
<glyph unicode="&#xec;" horiz-adv-x="450" d="M-41 1372v41l21 21h143l41 -21l184 -205v-41l-20 -20h-103l-41 20zM123 20v984l20 20h164l21 -20v-984l-21 -20h-164z" />
<glyph unicode="&#xed;" horiz-adv-x="450" d="M102 1167v41l185 205l41 21h143l21 -21v-41l-226 -205l-41 -20h-102zM123 20v984l20 20h164l21 -20v-984l-21 -20h-164z" />
<glyph unicode="&#xee;" horiz-adv-x="450" d="M-102 1167v41l184 205l41 21h205l41 -21l184 -205v-41l-21 -20h-102l-41 20l-143 123h-41l-144 -123l-41 -20h-102zM123 20v984l20 20h164l21 -20v-984l-21 -20h-164z" />
<glyph unicode="&#xef;" horiz-adv-x="450" d="M-61 1208v164l20 21h164l20 -21v-164l-20 -20h-164zM123 20v984l20 20h164l21 -20v-984l-21 -20h-164zM307 1208v164l21 21h164l20 -21v-164l-20 -20h-164z" />
<glyph unicode="&#xf0;" horiz-adv-x="1064" d="M61 512q0 244 124 388t327 144q99 0 156 -40q21 -13 49 -41h20q-17 77 -46 125t-77 79h-20l-62 -61l-40 -21h-103l-20 21v61l61 62v20q-64 21 -125 21h-18l-21 20v21l82 82l41 20h21q82 0 143 -20h20l62 61l41 21h123l20 -21v-41l-82 -82v-20q147 -119 207 -308t60 -491 q0 -258 -126 -395t-346 -137q-95 0 -178 32t-149.5 95t-105 167t-38.5 238zM266 512q0 -96 21 -166t59.5 -108.5t84 -56t101.5 -17.5q267 0 267 348t-267 348q-266 0 -266 -348z" />
<glyph unicode="&#xf1;" horiz-adv-x="1105" d="M123 20v984l20 20h144l20 -20l21 -82h20q22 28 64 61q85 61 202 61q105 0 181.5 -32t121.5 -91t66 -135t21 -172v-594l-21 -20h-164l-20 20v594q0 36 -3.5 66t-16 65t-33.5 59t-60 40t-92 16q-141 0 -203.5 -81t-62.5 -267v-492l-21 -20h-164zM225 1167q0 97 52.5 161.5 t152.5 64.5q46 0 84.5 -15t64.5 -36t48 -42t45 -36t45 -15q45 0 63.5 26t18.5 77l20 20h62l20 -20q0 -98 -52 -162t-153 -64q-46 0 -84.5 15t-64 36t-48 42t-45 36t-44.5 15q-45 0 -63.5 -26t-18.5 -77l-21 -20h-61z" />
<glyph unicode="&#xf2;" horiz-adv-x="1105" d="M61 512q0 246 132 389t360 143t359.5 -143t131.5 -389t-131.5 -389t-359.5 -143t-360 143t-132 389zM266 512q0 -172 73 -260t214 -88t214 88t73 260t-73 260t-214 88t-214 -88t-73 -260zM307 1372v41l21 21h143l41 -21l184 -205v-41l-20 -20h-103l-41 20z" />
<glyph unicode="&#xf3;" horiz-adv-x="1105" d="M61 512q0 246 132 389t360 143t359.5 -143t131.5 -389t-131.5 -389t-359.5 -143t-360 143t-132 389zM266 512q0 -172 73 -260t214 -88t214 88t73 260t-73 260t-214 88t-214 -88t-73 -260zM410 1167v41l184 205l41 21h143l21 -21v-41l-226 -205l-41 -20h-102z" />
<glyph unicode="&#xf4;" horiz-adv-x="1105" d="M61 512q0 246 132 389t360 143t359.5 -143t131.5 -389t-131.5 -389t-359.5 -143t-360 143t-132 389zM225 1167v41l185 205l41 21h204l41 -21l185 -205v-41l-21 -20h-102l-41 20l-144 123h-41l-143 -123l-41 -20h-102zM266 512q0 -172 73 -260t214 -88t214 88t73 260 t-73 260t-214 88t-214 -88t-73 -260z" />
<glyph unicode="&#xf5;" horiz-adv-x="1105" d="M61 512q0 246 132 389t360 143t359.5 -143t131.5 -389t-131.5 -389t-359.5 -143t-360 143t-132 389zM225 1167q0 97 52.5 161.5t152.5 64.5q46 0 84.5 -15t64.5 -36t48 -42t45 -36t45 -15q45 0 63.5 26t18.5 77l20 20h62l20 -20q0 -98 -52 -162t-153 -64q-46 0 -84.5 15 t-64 36t-48 42t-45 36t-44.5 15q-45 0 -63.5 -26t-18.5 -77l-21 -20h-61zM266 512q0 -172 73 -260t214 -88t214 88t73 260t-73 260t-214 88t-214 -88t-73 -260z" />
<glyph unicode="&#xf6;" horiz-adv-x="1105" d="M61 512q0 246 132 389t360 143t359.5 -143t131.5 -389t-131.5 -389t-359.5 -143t-360 143t-132 389zM266 512q0 -172 73 -260t214 -88t214 88t73 260t-73 260t-214 88t-214 -88t-73 -260zM266 1208v164l21 21h164l20 -21v-164l-20 -20h-164zM635 1208v164l20 21h164 l21 -21v-164l-21 -20h-164z" />
<glyph unicode="&#xf7;" horiz-adv-x="1228" d="M123 451v143l20 20h942l21 -20v-143l-21 -21h-942zM492 41v205l20 20h205l20 -20v-205l-20 -21h-205zM492 799v205l20 20h205l20 -20v-205l-20 -21h-205z" />
<glyph unicode="&#xf8;" horiz-adv-x="1105" d="M61 41v41l82 82v20q-34 53 -58 139t-24 189q0 246 132 389t360 143q95 0 181.5 -31t146.5 -91h20l62 61l41 21h20l20 -21v-41l-81 -82v-20q34 -53 57.5 -139t23.5 -189q0 -246 -131.5 -389t-359.5 -143q-95 0 -181.5 31t-146.5 91h-20l-62 -61l-41 -21h-20zM266 475 q0 -106 21 -147h20l430 430v41q-61 61 -184 61q-141 0 -214 -88t-73 -260v-37zM369 225q61 -61 184 -61q141 0 214 88t73 260v37q0 106 -21 147h-20l-430 -430v-41z" />
<glyph unicode="&#xf9;" horiz-adv-x="1085" d="M102 410v594l21 20h164l20 -20v-594q0 -246 205 -246q112 0 179 86t67 262v492l20 20h164l21 -20v-984l-21 -20h-143l-21 20l-20 82h-21q-24 -34 -61 -61q-81 -61 -184 -61q-84 0 -150.5 23.5t-111 63.5t-74 95.5t-42 117t-12.5 130.5zM266 1372v41l21 21h143l41 -21 l184 -205v-41l-20 -20h-103l-40 20z" />
<glyph unicode="&#xfa;" horiz-adv-x="1085" d="M102 410v594l21 20h164l20 -20v-594q0 -246 205 -246q112 0 179 86t67 262v492l20 20h164l21 -20v-984l-21 -20h-143l-21 20l-20 82h-21q-24 -34 -61 -61q-81 -61 -184 -61q-84 0 -150.5 23.5t-111 63.5t-74 95.5t-42 117t-12.5 130.5zM410 1167v41l184 205l41 21h143 l21 -21v-41l-226 -205l-41 -20h-102z" />
<glyph unicode="&#xfb;" horiz-adv-x="1085" d="M102 410v594l21 20h164l20 -20v-594q0 -246 205 -246q112 0 179 86t67 262v492l20 20h164l21 -20v-984l-21 -20h-143l-21 20l-20 82h-21q-24 -34 -61 -61q-81 -61 -184 -61q-84 0 -150.5 23.5t-111 63.5t-74 95.5t-42 117t-12.5 130.5zM205 1167v41l184 205l41 21h205 l41 -21l184 -205v-41l-20 -20h-103l-41 20l-143 123h-41l-143 -123l-41 -20h-103z" />
<glyph unicode="&#xfc;" horiz-adv-x="1085" d="M102 410v594l21 20h164l20 -20v-594q0 -246 205 -246q112 0 179 86t67 262v492l20 20h164l21 -20v-984l-21 -20h-143l-21 20l-20 82h-21q-24 -34 -61 -61q-81 -61 -184 -61q-84 0 -150.5 23.5t-111 63.5t-74 95.5t-42 117t-12.5 130.5zM246 1208v164l20 21h164l21 -21 v-164l-21 -20h-164zM614 1208v164l21 21h164l20 -21v-164l-20 -20h-164z" />
<glyph unicode="&#xfd;" horiz-adv-x="1044" d="M61 860v144l21 20h123l20 -20l287 -758h20l287 758l21 20h123l20 -20v-144l-328 -819q-50 -120 -89 -188t-91.5 -111t-113 -56.5t-156.5 -13.5h-41l-21 21v143l21 21h41q84 0 130 24.5t75 98.5v20zM389 1167v41l184 205l41 21h144l20 -21v-41l-225 -205l-41 -20h-102z " />
<glyph unicode="&#xfe;" horiz-adv-x="1126" d="M123 -389v1802l20 21h164l21 -21v-491h20q20 32 66 61q92 61 221 61q194 0 301.5 -147.5t107.5 -384.5t-107.5 -384.5t-301.5 -147.5q-129 0 -221 61q-46 29 -66 61h-20v-491l-21 -21h-164zM328 512q0 -348 266 -348q246 0 246 348t-246 348q-266 0 -266 -348z" />
<glyph unicode="&#xff;" horiz-adv-x="1044" d="M61 860v144l21 20h123l20 -20l287 -758h20l287 758l21 20h123l20 -20v-144l-328 -819q-50 -120 -89 -188t-91.5 -111t-113 -56.5t-156.5 -13.5h-41l-21 21v143l21 21h41q84 0 130 24.5t75 98.5v20zM225 1208v164l21 21h164l20 -21v-164l-20 -20h-164zM614 1208v164l21 21 h164l20 -21v-164l-20 -20h-164z" />
<glyph unicode="&#x152;" horiz-adv-x="2068" d="M61 717q0 360 165 548.5t450 188.5q138 0 258 -51q50 -21 90 -51h20v61l21 21h860l21 -21v-143l-21 -21h-655l-21 -20v-389l21 -21h614l21 -20v-144l-21 -20h-614l-21 -21v-409l21 -21h655l21 -20v-144l-21 -20h-860l-21 20v62h-20q-40 -30 -90 -51q-111 -51 -258 -51 q-285 0 -450 188.5t-165 548.5zM266 717q0 -553 430 -553q128 0 223 47.5t125 136.5v737q-30 89 -125 137t-223 48q-430 0 -430 -553z" />
<glyph unicode="&#x153;" horiz-adv-x="1822" d="M61 512q0 246 132 389t360 143q252 0 369 -163h20q121 163 348 163q119 0 211 -42.5t148 -116.5t84 -168.5t28 -204.5v-61l-20 -21h-676l-21 -20q0 -18 3.5 -41.5t20 -62t43 -68.5t79 -52t121.5 -22q72 0 123.5 26t81.5 97l20 20h164l20 -20q-18 -131 -125.5 -219 t-283.5 -88q-226 0 -369 143h-20q-143 -143 -369 -143q-228 0 -360 143t-132 389zM266 512q0 -172 73 -260t214 -88t214 88t73 260t-73 260t-214 88t-214 -88t-73 -260zM1044 614l21 -20h451l20 20q0 24 -4 49.5t-19 63t-40 65t-72.5 48t-110.5 20.5t-110.5 -20.5t-72.5 -48 t-40 -65t-19 -63t-4 -49.5z" />
<glyph unicode="&#x178;" horiz-adv-x="1187" d="M61 1270v143l21 21h82l41 -21l368 -614h41l369 614l41 21h82l20 -21v-143l-430 -697v-553l-20 -20h-164l-20 20v553zM307 1618v164l21 20h164l20 -20v-164l-20 -21h-164zM676 1618v164l20 20h164l21 -20v-164l-21 -21h-164z" />
<glyph unicode="&#x2c6;" d="M184 1167v41l185 205l41 21h204l41 -21l185 -205v-41l-21 -20h-102l-41 20l-144 123h-40l-144 -123l-41 -20h-102z" />
<glyph unicode="&#x2dc;" d="M164 1167q0 97 52.5 161.5t152.5 64.5q46 0 84.5 -15t64 -36t48 -42t45 -36t44.5 -15q45 0 63.5 26t18.5 77l21 20h61l21 -20q0 -98 -52 -162t-153 -64q-46 0 -84.5 15t-64.5 36t-48 42t-45 36t-45 15q-45 0 -63.5 -26t-18.5 -77l-20 -20h-62z" />
<glyph unicode="&#x2000;" horiz-adv-x="921" />
<glyph unicode="&#x2001;" horiz-adv-x="1843" />
<glyph unicode="&#x2002;" horiz-adv-x="921" />
<glyph unicode="&#x2003;" horiz-adv-x="1843" />
<glyph unicode="&#x2004;" horiz-adv-x="614" />
<glyph unicode="&#x2005;" horiz-adv-x="460" />
<glyph unicode="&#x2006;" horiz-adv-x="307" />
<glyph unicode="&#x2007;" horiz-adv-x="307" />
<glyph unicode="&#x2008;" horiz-adv-x="230" />
<glyph unicode="&#x2009;" horiz-adv-x="368" />
<glyph unicode="&#x200a;" horiz-adv-x="102" />
<glyph unicode="&#x2010;" horiz-adv-x="839" d="M123 451v143l20 20h553l21 -20v-143l-21 -21h-553z" />
<glyph unicode="&#x2011;" horiz-adv-x="839" d="M123 451v143l20 20h553l21 -20v-143l-21 -21h-553z" />
<glyph unicode="&#x2012;" horiz-adv-x="839" d="M123 451v143l20 20h553l21 -20v-143l-21 -21h-553z" />
<glyph unicode="&#x2013;" horiz-adv-x="1269" d="M123 451v143l20 20h983l21 -20v-143l-21 -21h-983z" />
<glyph unicode="&#x2014;" horiz-adv-x="2293" d="M123 451v143l20 20h2007l21 -20v-143l-21 -21h-2007z" />
<glyph unicode="&#x2018;" horiz-adv-x="573" d="M143 963v225l21 61l123 164l41 21h82v-21l-123 -184v-21l20 -20h62l20 -21v-204l-20 -21h-205z" />
<glyph unicode="&#x2019;" horiz-adv-x="573" d="M164 942v21l123 184v20l-21 21h-61l-21 20v205l21 21h205l20 -21v-225l-20 -62l-123 -163l-41 -21h-82z" />
<glyph unicode="&#x201a;" horiz-adv-x="573" d="M143 -225l123 184v21l-20 20h-62l-20 20v205l20 21h205l21 -21v-225l-21 -61l-123 -164l-41 -21h-82v21z" />
<glyph unicode="&#x201c;" horiz-adv-x="983" d="M143 963v225l21 61l123 164l41 21h82v-21l-123 -184v-21l20 -20h62l20 -21v-204l-20 -21h-205zM553 963v225l20 61l123 164l41 21h82v-21l-123 -184v-21l21 -20h61l21 -21v-204l-21 -21h-205z" />
<glyph unicode="&#x201d;" horiz-adv-x="983" d="M164 942v21l123 184v20l-21 21h-61l-21 20v205l21 21h205l20 -21v-225l-20 -62l-123 -163l-41 -21h-82zM573 942v21l123 184v20l-20 21h-62l-20 20v205l20 21h205l21 -21v-225l-21 -62l-123 -163l-41 -21h-82z" />
<glyph unicode="&#x201e;" horiz-adv-x="983" d="M143 -225l123 184v21l-20 20h-62l-20 20v205l20 21h205l21 -21v-225l-21 -61l-123 -164l-41 -21h-82v21zM553 -225l123 184v21l-21 20h-61l-21 20v205l21 21h205l20 -21v-225l-20 -61l-123 -164l-41 -21h-82v21z" />
<glyph unicode="&#x2022;" horiz-adv-x="798" d="M164 512v20l225 226h21l225 -226v-20l-225 -225h-21z" />
<glyph unicode="&#x2026;" horiz-adv-x="1474" d="M164 20v205l20 21h205l21 -21v-205l-21 -20h-205zM614 20v205l21 21h205l20 -21v-205l-20 -20h-205zM1065 20v205l20 21h205l21 -21v-205l-21 -20h-205z" />
<glyph unicode="&#x202f;" horiz-adv-x="368" />
<glyph unicode="&#x2039;" horiz-adv-x="901" d="M164 451v122l20 41l328 328l41 21h164l20 -21v-61l-368 -349v-40l368 -349v-61l-20 -21h-164l-41 21l-328 328z" />
<glyph unicode="&#x203a;" horiz-adv-x="901" d="M164 82v61l368 349v40l-368 349v61l20 21h164l41 -21l328 -328l20 -41v-122l-20 -41l-328 -328l-41 -21h-164z" />
<glyph unicode="&#x205f;" horiz-adv-x="460" />
<glyph unicode="&#x20ac;" horiz-adv-x="1454" d="M41 512v123l20 20h123l21 21v82l-21 20h-123l-20 21v123l20 20h144l20 21q30 218 191.5 354.5t402.5 136.5q237 0 380 -108t173 -322l-20 -20h-164l-21 20q-31 125 -114 185.5t-234 60.5q-77 0 -141.5 -20.5t-106 -52t-72 -74t-46 -81t-23.5 -79.5l21 -21h491l21 -20 v-123l-21 -21h-512l-20 -20v-82l20 -21h430l21 -20v-123l-21 -20h-409l-21 -21q8 -49 35 -100t73 -99t119.5 -78t161.5 -30q151 0 234 60.5t114 185.5l21 20h164l20 -20q-30 -214 -173 -322t-380 -108q-231 0 -390.5 131.5t-203.5 359.5l-20 21h-144z" />
<glyph unicode="&#x2122;" horiz-adv-x="1699" d="M41 1331v82l20 21h594l21 -21v-82l-21 -20h-204l-21 -21v-573l-20 -21h-103l-20 21v573l-21 21h-205zM778 717v696l21 21h143l21 -21l204 -512h21l205 512l20 21h143l21 -21v-696l-21 -21h-102l-20 21v409h-21l-164 -409l-20 -21h-103l-20 21l-164 409h-20v-409l-21 -21 h-102z" />
<glyph unicode="&#xe000;" d="M0 0v1024h1024v-1024h-1024z" />
<glyph unicode="&#xfb01;" horiz-adv-x="1208" d="M61 860v144l21 20h143l21 20v82q0 89 42.5 151t105.5 89t138 27h164l21 -21v-143l-21 -21h-164q-35 0 -58 -19t-23 -63v-82l20 -20h594l20 -20v-984l-20 -20h-164l-20 20v799l-21 21h-389l-20 -21v-799l-21 -20h-164l-20 20v799l-21 21h-143zM881 1208v164l20 21h164 l20 -21v-164l-20 -20h-164z" />
<glyph unicode="&#xfb02;" horiz-adv-x="1208" d="M61 860v144l21 20h143l21 20v82q0 89 42.5 151t105.5 89t138 27h164l21 -21v-143l-21 -21h-164q-35 0 -58 -19t-23 -63v-82l20 -20h389l21 20v369l20 21h164l20 -21v-1393l-20 -20h-164l-20 20v799l-21 21h-389l-20 -21v-799l-21 -20h-164l-20 20v799l-21 21h-143z" />
<glyph unicode="&#xfb03;" horiz-adv-x="1843" d="M61 860v144l21 20h143l21 20v82q0 89 42.5 151t105.5 89t138 27h164l21 -21v-143l-21 -21h-164q-35 0 -58 -19t-23 -63v-82l20 -20h389l21 20v82q0 89 42.5 151t105.5 89t138 27h164l21 -21v-143l-21 -21h-164q-35 0 -58.5 -19t-23.5 -63v-82l21 -20h594l20 -20v-984 l-20 -20h-164l-20 20v799l-21 21h-389l-21 -21v-799l-20 -20h-164l-20 20v799l-21 21h-389l-20 -21v-799l-21 -20h-164l-20 20v799l-21 21h-143zM1516 1208v164l20 21h164l20 -21v-164l-20 -20h-164z" />
<glyph unicode="&#xfb04;" horiz-adv-x="1843" d="M61 860v144l21 20h143l21 20v82q0 89 42.5 151t105.5 89t138 27h164l21 -21v-143l-21 -21h-164q-35 0 -58 -19t-23 -63v-82l20 -20h389l21 20v82q0 89 42.5 151t105.5 89t138 27h164l21 -21v-143l-21 -21h-164q-35 0 -58.5 -19t-23.5 -63v-82l21 -20h389l21 20v369l20 21 h164l20 -21v-1393l-20 -20h-164l-20 20v799l-21 21h-389l-21 -21v-799l-20 -20h-164l-20 20v799l-21 21h-389l-20 -21v-799l-21 -20h-164l-20 20v799l-21 21h-143z" />
</font>
</defs>
</svg>
